BitTorrentTracker PerecTracker.org
BitTorrentTracker PerecTracker.org
    
Регистрация  ·  Вход
 
 · 
Забыли пароль?

  • Спасение (Иван Вырыпаев) [2015, драма, SATRip]

    Ответить на тему
     
    Автор Сообщение

    Flirldrerve

    Создавать темы 10-Апр-2016 00:09

           

    [Цитировать]

    Спасение
    Жанр: драма
    Год выпуска: 2015
    Продолжительность: 01:34:02
    Режиссёр: Иван Вырыпаев
    В ролях: Полина Гришина, Каролина Грушка, Казимир Лиске, Ванчук Фарго, Диана Замойская, отец Эдвард, Иван Вырыпаев
    Описание: Молодая католическая монахиня сестра Анна из Польши отправляется служить в миссию католического прихода высоко в гималайских горах. Анне 25 лет, и представления о мире за стенами монастыря у неё весьма поверхностные. Оказавшись в незнакомой стране, чья культура разительно отличается от привычной ей европейской, сестра Анна зачарованно впитывает новые впечатления, проводя несколько свободных дней в пеших экскурсиях по неизведанному краю и знакомится с людьми, чуждыми ей по образу жизни, но близкими по духу. Новые встречи ставят перед Анной неожиданные и сложные вопросы, ответы на которые тревожат и вдохновляют её, становясь для неё своего рода спасением...
    Доп. информация: Сценарий: Иван Вырыпаев
    Продюсеры: Сергей Зернов, Светлана Кучмаева
    Оператор: Андрей Найденов
    Композитор: Андрей Самсонов
    Монтаж: Мариус Блинтрубас
    Премьера (мир): 13 октября 2015, РФ: 24 сентября 2015
    Награды: кинофестиваль "Кинотавр"2015. Победитель в категории "Лучшая женская роль" (Полина Гришина), номинация в категории "Лучший фильм" ("Главный приз")
    Сэмпл: http://sendfile.su/1222610
    Качество видео: SATRip
    Формат видео: AVI
    Видео: 720x400 (1.80:1), 25 fps, XviD build 73, 2080 kbps avg, 0.29 bit/pixel, 1347.46 Mb
    Аудио: 48 kHz, AC3 Dolby Digital, 2/0 (L,R) ch, 224 kbps, 1:30:19.000 / 144.70 Mb

    MediaInfo

    Формат : AVI
    Формат/Информация : Audio Video Interleave
    Размер файла : 1,46 Гбайт
    Продолжительность : 1 ч. 30 м.
    Общий поток : 2315 Кбит/сек
    Программа кодирования : VirtualDubMod 1.5.10.3 (build 2550/release)
    Библиотека кодирования : VirtualDubMod build 2550/release
    Видео
    Идентификатор : 0
    Формат : MPEG-4 Visual
    Профиль формата : Advanced Simple@L5
    Параметр BVOP формата : 1
    Параметр QPel формата : Нет
    Параметр GMC формата : Без точки перехода
    Параметр матрицы формата : Default (H.263)
    Идентификатор кодека : XVID
    Идентификатор кодека/Подсказка : XviD
    Продолжительность : 1 ч. 30 м.
    Битрейт : 2081 Кбит/сек
    Ширина : 720 пикселей
    Высота : 400 пикселей
    Соотношение сторон : 16:9
    Частота кадров : 25,000 кадров/сек
    Цветовое пространство : YUV
    Субдискретизация насыщенности : 4:2:0
    Битовая глубина : 8 бит
    Тип развёртки : Прогрессивная
    Метод сжатия : С потерями
    Бит/(Пиксели*Кадры) : 0.289
    Размер потока : 1,31 Гбайт (90%)
    Библиотека кодирования : XviD 73
    Аудио
    Идентификатор : 1
    Формат : AC-3
    Формат/Информация : Audio Coding 3
    Расширение режима : CM (complete main)
    Параметр Endianness формата : Big
    Идентификатор кодека : 2000
    Продолжительность : 1 ч. 30 м.
    Вид битрейта : Постоянный
    Битрейт : 224 Кбит/сек
    Каналы : 2 канала
    Расположение каналов : Front: L R
    Частота : 48,0 КГц
    Частота кадров : 31,250 кадров/сек (1536 spf)
    Метод сжатия : С потерями
    Размер потока : 145 Мбайт (10%)
    Выравнивание : Разделение по промежуткам
    Продолжительность промежутка : 40 мс. (1,00 видеокадр)
    Время предзагрузки промежутка : 500 мс.

    Скриншот c названием фильма

    Скриншоты



    Скачать .torrent

    Скачать торрент-файл бесплатно и на максимальной скорости!

    Как скачивать? · Что такое торрент? · Рейтинг и ограничения

    !ВНИМАНИЕ!
    Сайт не распространяет и не хранит электронные версии произведений, а занимается лишь лишь предоставлением доступа к создаваемому пользователями каталогу ссылок на торрент-файлы, которые содержат только списки хеш-сумм, убедительная просьба с жалобами обращаться напрямую к пользователю. Файлы для обмена на трекере предоставлены пользователями сайта, и администрация не несёт ответственности за их содержание. Просьба не заливать файлы, защищенные авторскими правами, а также файлы нелегального содержания!


    _________________
    [Профиль] [ЛС]
    Показать сообщения:    
    Ответить на тему

    Текущее время: Сегодня, в 17:50

    Часовой пояс: GMT + 2



    Вы не можете начинать темы
    Вы не можете отвечать на сообщения
    Вы не можете редактировать свои сообщения
    Вы не можете удалять свои сообщения
    Вы не можете голосовать в опросах
    Вы не можете прикреплять файлы к сообщениям
    Вы не можете скачивать файлы