BitTorrentTracker PerecTracker.org
BitTorrentTracker PerecTracker.org
    
Регистрация  ·  Вход
 
 · 
Забыли пароль?

  • Эмануэль и правда о рыбах / The Truth About Emanuel (Франческа Грегорини / Francesca Gregorini) [2013, США, триллер, драма, BDRemux 1080p] DVO (IVI) + VO (Andi) + Sub Rus, Eng + Original Eng

    Ответить на тему
     
    Автор Сообщение

    Light

    Создавать темы 10-Апр-2016 00:09

           

    [Цитировать]

    Эмануэль и правда о рыбахThe Truth About EmanuelГод выпуска: 2013
    Страна: США
    Жанр: триллер, драма
    Продолжительность: 01:35:43
    Перевод: Профессиональный (двухголосый закадровый) - IVI
    Перевод 2: Одноголосый закадровый - Andi
    Субтитры: русские (Janetta), английские (SDH)
    Оригинальная аудиодорожка: английская
    Режиссёр: Франческа Грегорини / Francesca Gregorini
    В ролях: Кая Скоделарио, Джессика Бил, Альфред Молина, Фрэнсис О’Коннор, Анайрин Барнард, Джимми Симпсон, Габриэлла Диас,, Спенсер Гаррет, Сэм Джагер, Кевин МакКоркл, Сиена Перес, Уильям Филип, Энн Рэмси, Вульф Росс, Джонатан Шмок, Расселл Стейнберг, Купер Торнтон, Люси Уолш
    Описание: Эмануэль — язвительная и в то же время чувствительная девушка-подросток, живущая со своим отцом и мачехой. Приближается её очередной день рождения, однако Эмануэль безразличен этот праздник с тех пор, как её мать, подарив ей жизнь, умерла при родах. В это же время по соседству с ней поселяется загадочная Линда, обладающая поразительным сходством с покойной матерью Эмануэль. Заинтригованная данным фактом, Эмануэль начинает работать няней для новорожденной дочери Линды и постепенно втягивается в хрупкий, вымышленный мир своей соседки, в котором самой Эмануэль отведена роль привратника.
    Тип релиза: BDRemux 1080p
    Контейнер: MKV
    Видео: MPEG-4 AVC, 1920x1080 (16:9), 23.976 fps, 23852 kbps
    Аудио : Russian AC3, 2.0 ch, 48KHz, 16-bit, 192 Kbps - IVI
    Аудио 2: Russian AC3, 2.0 ch, 48KHz, 16-bit, 192 Kbps - Andi
    Аудио 3: English DTS-HD MA 5.1, 1764 kbps, 48 kHz, 16-bit (DTS Core: 5.1, 1509 kbps, 48 kHz, 16-bit)
    Формат субтитров: SRT
    Навигация по главам: есть


    Сэмпл

    MediaInfo

    General
    Unique ID : 225025576871750975495144988344339757276 (0xA94A59844D8963949051E39E1CAD78DC)
    Complete name : C:\Эмануэль и правда о рыбах - The Truth About Emanuel (2013, BDRemux).mkv
    Format : Matroska
    Format version : Version 4 / Version 2
    File size : 17.4 GiB
    Duration : 1h 35mn
    Overall bit rate mode : Variable
    Overall bit rate : 26.0 Mbps
    Movie name : The Truth About Emanuel (2013)
    Encoded date : UTC 2016-04-07 10:37:59
    Writing application : mkvmerge v9.0.1 ('Obstacles') 64bit
    Writing library : libebml v1.3.3 + libmatroska v1.4.4
    Cover : Yes
    Attachments : cover.JPG
    Video
    ID : 1
    Format : AVC
    Format/Info : Advanced Video Codec
    Format profile : High@L4.1
    Format settings, CABAC : Yes
    Format settings, ReFrames : 4 frames
    Codec ID : V_MPEG4/ISO/AVC
    Duration : 1h 35mn
    Bit rate mode : Variable
    Bit rate : 23.9 Mbps
    Maximum bit rate : 30.0 Mbps
    Width : 1 920 pixels
    Height : 1 080 pixels
    Display aspect ratio : 16:9
    Frame rate mode : Constant
    Frame rate : 23.976 (24000/1001) fps
    Standard : NTSC
    Color space : YUV
    Chroma subsampling : 4:2:0
    Bit depth : 8 bits
    Scan type : Progressive
    Bits/(Pixel*Frame) : 0.480
    Stream size : 15.9 GiB (92%)
    Language : English
    Default : Yes
    Forced : No
    Color range : Limited
    Color primaries : BT.709
    Transfer characteristics : BT.709
    Matrix coefficients : BT.709
    Audio #1
    ID : 2
    Format : AC-3
    Format/Info : Audio Coding 3
    Mode extension : CM (complete main)
    Format settings, Endianness : Big
    Codec ID : A_AC3
    Duration : 1h 35mn
    Bit rate mode : Constant
    Bit rate : 192 Kbps
    Channel(s) : 2 channels
    Channel positions : Front: L R
    Sampling rate : 48.0 KHz
    Frame rate : 31.250 fps (1536 spf)
    Compression mode : Lossy
    Stream size : 131 MiB (1%)
    Title : DVO - IVI
    Language : Russian
    Default : Yes
    Forced : No
    Audio #2
    ID : 3
    Format : AC-3
    Format/Info : Audio Coding 3
    Mode extension : CM (complete main)
    Format settings, Endianness : Big
    Codec ID : A_AC3
    Duration : 1h 35mn
    Bit rate mode : Constant
    Bit rate : 192 Kbps
    Channel(s) : 2 channels
    Channel positions : Front: L R
    Sampling rate : 48.0 KHz
    Frame rate : 31.250 fps (1536 spf)
    Compression mode : Lossy
    Stream size : 131 MiB (1%)
    Title : VO - Andi
    Language : Russian
    Default : No
    Forced : No
    Audio #3
    ID : 4
    Format : DTS
    Format/Info : Digital Theater Systems
    Format profile : MA / Core
    Mode : 16
    Format settings, Endianness : Big
    Codec ID : A_DTS
    Duration : 1h 35mn
    Bit rate mode : Variable / Constant
    Bit rate : 1 764 Kbps / 1 509 Kbps
    Channel(s) : 6 channels
    Channel positions : Front: L C R, Side: L R, LFE
    Sampling rate : 48.0 KHz
    Frame rate : 93.750 fps (512 spf)
    Bit depth : 16 bits
    Compression mode : Lossless / Lossy
    Stream size : 1.18 GiB (7%)
    Language : English
    Default : No
    Forced : No
    Text #1
    ID : 5
    Format : UTF-8
    Codec ID : S_TEXT/UTF8
    Codec ID/Info : UTF-8 Plain Text
    Duration : 1h 24mn
    Bit rate : 85 bps
    Count of elements : 988
    Stream size : 53.0 KiB (0%)
    Language : Russian
    Default : No
    Forced : No
    Text #2
    ID : 6
    Format : UTF-8
    Codec ID : S_TEXT/UTF8
    Codec ID/Info : UTF-8 Plain Text
    Duration : 1h 24mn
    Bit rate : 54 bps
    Count of elements : 1085
    Stream size : 33.7 KiB (0%)
    Language : English
    Default : No
    Forced : No
    Menu
    00:00:00.000 : en:...It's Me Who Pays
    00:06:47.490 : en:Reality Is Overrated
    00:13:30.059 : en:Poir Toi
    00:18:35.447 : en:Emanuel Meets Chloe
    00:26:22.539 : en:I See Myself in You
    00:37:39.590 : en:Claude and Emanuel
    00:42:54.071 : en:Emanuel's First Date
    00:49:51.071 : en:Emanuel's Birthday
    01:02:25.616 : en:Where Is Chloe?
    01:12:14.038 : en:It Almost Put Me Over the Edge
    01:18:48.223 : en:Emanuel's and Linda's Closure
    01:28:42.191 : en:End Credits

    Скриншоты

    Скачать .torrent

    Скачать торрент-файл бесплатно и на максимальной скорости!

    Как скачивать? · Что такое торрент? · Рейтинг и ограничения

    !ВНИМАНИЕ!
    Сайт не распространяет и не хранит электронные версии произведений, а занимается лишь лишь предоставлением доступа к создаваемому пользователями каталогу ссылок на торрент-файлы, которые содержат только списки хеш-сумм, убедительная просьба с жалобами обращаться напрямую к пользователю. Файлы для обмена на трекере предоставлены пользователями сайта, и администрация не несёт ответственности за их содержание. Просьба не заливать файлы, защищенные авторскими правами, а также файлы нелегального содержания!


    _________________
    [Профиль] [ЛС]
    Показать сообщения:    
    Ответить на тему

    Текущее время: Сегодня, в 00:32

    Часовой пояс: GMT + 2



    Вы не можете начинать темы
    Вы не можете отвечать на сообщения
    Вы не можете редактировать свои сообщения
    Вы не можете удалять свои сообщения
    Вы не можете голосовать в опросах
    Вы не можете прикреплять файлы к сообщениям
    Вы не можете скачивать файлы