BitTorrentTracker PerecTracker.org
BitTorrentTracker PerecTracker.org
    
Регистрация  ·  Вход
 
 · 
Забыли пароль?

  • Счастливый брак / A Good Marriage (Питер Эскин / Peter Askin) [2014, США, триллер, драма, BDRip 720p] DVO + Original (Eng) + Sub (Rus, Eng)

    Ответить на тему
     
    Автор Сообщение

    Light

    Создавать темы 10-Апр-2016 00:09

           

    [Цитировать]

    Счастливый брак / A Good Marriage
    «Two can keep a secret, if one of them is dead»
    -Страна: США
    Жанр: триллер, драма
    Год выпуска: 2014
    Продолжительность: 01:42:24-Перевод: Профессиональный (двухголосый закадровый)
    Оригинальная аудиодорожка: English
    Cубтитры: Русские (полные - er45ty), English (full)
    Навигация по главам: присутствует - 10 глав-Режиссер: Питер Эскин / Peter Askin
    В ролях: Джоан Аллен, Энтони ЛаПалья, Стивен Лэнг, Кара Буоно, Кристен Коннолли, Майк О’Мэлли, Тео Стокман, Уилл Роджерс, Пан Банду, Терра Макинтош-Описание: После 25 лет счастливого брака Дарси узнаёт зловещий секрет о своём муже. Как быть, если под угрозой не только семья, но и жизнь?-
    Download sample-Качество видео: BDRip 720p | исх. BDRemux 1080p - thx: [url=profile.php?mode=viewprofile&u=11511808]flaSI-I[/url]
    Формат: MKV-Видео: 1 280x532 (2.40:1), 23.976 fps, H.264, 4305.02 kb/s, 0.257 bit/pixel
    Аудио №1: 48.0 kHz, AC3 Dolby Digital, 2/0 (L,R) ch, ~192 kbps avg | Профессиональный (двухголосый закадровый)
    Аудио №2: 48.0 kHz, AC3 Dolby Digital, 3/2 (L,C,R,l,r) + LFE ch, ~640 kbps avg | English
    Субтитры №1: Русские (полные - er45ty) | *.srt
    Субтитры №2: English (full) | *.srt-

    MediaInfo

    General
    Unique ID : 177743392836477672502461673662677912112 (0x85B821DC52130846B731BDE5492A0A30)
    Complete name : D:\Фильмы\Рипы\A Good Marriage.2014.BDRip 720p.eFK tRuAVC.mkv
    Format : Matroska
    Format version : Version 4 / Version 2
    File size : 3.67 GiB
    Duration : 1h 42mn
    Overall bit rate : 5 138 Kbps
    Movie name : Счастливый брак / A Good Marriage (2014) - Release for rutracker
    Encoded date : UTC 2016-04-07 12:03:29
    Writing application : mkvmerge v7.6.0 ('Garden of Dreams') 64bit built on Feb 8 2015 13:04:34
    Writing library : libebml v1.3.1 + libmatroska v1.4.2
    Attachements : cover.jpg
    DURATION : 01:42:24.064000000
    NUMBER_OF_FRAMES : 192002
    NUMBER_OF_BYTES : 491525120
    _STATISTICS_WRITING_APP : mkvmerge v7.6.0 ('Garden of Dreams') 64bit built on Feb 8 2015 13:04:34
    _STATISTICS_WRITING_DATE_UT : 2016-04-07 12:03:29
    _STATISTICS_TAGS : BPS DURATION NUMBER_OF_FRAMES NUMBER_OF_BYTES
    Video
    ID : 1
    Format : AVC
    Format/Info : Advanced Video Codec
    Format profile : High@L4.1
    Format settings, CABAC : Yes
    Format settings, ReFrames : 11 frames
    Codec ID : V_MPEG4/ISO/AVC
    Duration : 1h 42mn
    Bit rate : 4 204 Kbps
    Width : 1 280 pixels
    Height : 532 pixels
    Display aspect ratio : 2.40:1
    Frame rate mode : Constant
    Frame rate : 23.976 fps
    Color space : YUV
    Chroma subsampling : 4:2:0
    Bit depth : 8 bits
    Scan type : Progressive
    Bits/(Pixel*Frame) : 0.257
    Stream size : 3.01 GiB (82%)
    Title : eFK tRuAVC
    Writing library : x264 core 148 r2665kMod a01e339
    Encoding settings : cabac=1 / ref=11 / deblock=1:-3:-2 / analyse=0x3:0x113 / me=umh / subme=11 / psy=1 / fade_compensate=0.00 / psy_rd=1.00:0.00 / mixed_ref=1 / me_range=48 / chroma_me=1 / trellis=2 / 8x8dct=1 / cqm=0 / deadzone=21,11 / fast_pskip=0 / chroma_qp_offset=-2 / threads=12 / lookahead_threads=3 / sliced_threads=0 / nr=0 / decimate=1 / interlaced=0 / bluray_compat=0 / constrained_intra=0 / fgo=0 / bframes=16 / b_pyramid=2 / b_adapt=2 / b_bias=0 / direct=3 / weightb=1 / open_gop=0 / weightp=2 / keyint=250 / keyint_min=23 / scenecut=40 / intra_refresh=0 / rc_lookahead=60 / rc=crf / mbtree=0 / crf=17.0000 / qcomp=0.65 / qpmin=0 / qpmax=69 / qpstep=4 / vbv_maxrate=62500 / vbv_bufsize=78125 / crf_max=0.0 / nal_hrd=none / filler=0 / ip_ratio=1.40 / pb_ratio=1.30 / aq=3:0.83
    Language : English
    Default : Yes
    Forced : No
    Color range : Limited
    Color primaries : BT.709
    Transfer characteristics : BT.709
    Matrix coefficients : BT.709
    DURATION : 01:42:23.971000000
    NUMBER_OF_FRAMES : 147308
    NUMBER_OF_BYTES : 3306238439
    _STATISTICS_WRITING_APP : mkvmerge v7.6.0 ('Garden of Dreams') 64bit built on Feb 8 2015 13:04:34
    _STATISTICS_WRITING_DATE_UT : 2016-04-07 12:03:29
    _STATISTICS_TAGS : BPS DURATION NUMBER_OF_FRAMES NUMBER_OF_BYTES
    Audio #1
    ID : 2
    Format : AC-3
    Format/Info : Audio Coding 3
    Mode extension : CM (complete main)
    Format settings, Endianness : Big
    Codec ID : A_AC3
    Duration : 1h 42mn
    Bit rate mode : Constant
    Bit rate : 192 Kbps
    Channel(s) : 2 channels
    Channel positions : Front: L R
    Sampling rate : 48.0 KHz
    Compression mode : Lossy
    Stream size : 141 MiB (4%)
    Title : DVO
    Language : Russian
    Default : Yes
    Forced : No
    Audio #2
    ID : 3
    Format : AC-3
    Format/Info : Audio Coding 3
    Mode extension : CM (complete main)
    Format settings, Endianness : Big
    Codec ID : A_AC3
    Duration : 1h 42mn
    Bit rate mode : Constant
    Bit rate : 640 Kbps
    Channel(s) : 6 channels
    Channel positions : Front: L C R, Side: L R, LFE
    Sampling rate : 48.0 KHz
    Compression mode : Lossy
    Stream size : 469 MiB (12%)
    Language : English
    Default : No
    Forced : No
    Text #1
    ID : 4
    Format : UTF-8
    Codec ID : S_TEXT/UTF8
    Codec ID/Info : UTF-8 Plain Text
    Title : полные - er45ty
    Language : Russian
    Default : No
    Forced : No
    Text #2
    ID : 5
    Format : UTF-8
    Codec ID : S_TEXT/UTF8
    Codec ID/Info : UTF-8 Plain Text
    Title : full
    Language : English
    Default : No
    Forced : No
    Menu
    00:00:00.000 : en:00:00:00.000
    00:12:01.721 : en:00:12:01.721
    00:24:40.521 : en:00:24:40.521
    00:34:38.493 : en:00:34:38.493
    00:44:23.202 : en:00:44:23.202
    00:55:32.037 : en:00:55:32.037
    01:06:26.858 : en:01:06:26.858
    01:10:41.446 : en:01:10:41.446
    01:19:31.308 : en:01:19:31.308
    01:28:49.699 : en:01:28:49.699

    x264 log

    x264 [info]: frame I:876 Avg QP:14.50 size: 98145
    x264 [info]: frame P:27967 Avg QP:16.41 size: 46185
    x264 [info]: frame B:118465 Avg QP:18.07 size: 16280
    x264 [info]: consecutive B-frames: 1.1% 2.6% 3.9% 8.4% 9.9% 64.9% 3.7% 0.5% 0.9% 0.5% 0.5% 0.3% 0.4% 0.3% 0.1% 0.2% 1.7%
    x264 [info]: mb I I16..4: 7.8% 76.9% 15.3%
    x264 [info]: mb P I16..4: 0.4% 16.1% 1.8% P16..4: 26.0% 33.1% 15.8% 0.0% 0.0% skip: 6.9%
    x264 [info]: mb B I16..4: 0.1% 1.6% 0.2% B16..8: 32.4% 24.3% 6.8% direct: 6.2% skip:28.4% L0:46.6% L1:41.2% BI:12.2%
    x264 [info]: 8x8 transform intra:86.0% inter:52.9%
    x264 [info]: direct mvs spatial:99.9% temporal:0.1%
    x264 [info]: coded y,uvDC,uvAC intra: 91.8% 90.0% 78.7% inter: 32.3% 24.9% 4.3%
    x264 [info]: i16 v,h,dc,p: 45% 10% 10% 35%
    x264 [info]: i8 v,h,dc,ddl,ddr,vr,hd,vl,hu: 12% 7% 14% 9% 12% 12% 11% 11% 12%
    x264 [info]: i4 v,h,dc,ddl,ddr,vr,hd,vl,hu: 42% 5% 8% 6% 9% 9% 8% 7% 7%
    x264 [info]: i8c dc,h,v,p: 47% 24% 17% 12%
    x264 [info]: Weighted P-Frames: Y:3.5% UV:1.2%
    x264 [info]: ref P L0: 40.9% 9.5% 18.4% 7.2% 6.4% 4.6% 4.3% 2.4% 2.4% 1.8% 2.0% 0.1% 0.0%
    x264 [info]: ref B L0: 69.8% 12.0% 6.3% 3.4% 2.6% 2.1% 1.7% 1.1% 0.7% 0.3%
    x264 [info]: ref B L1: 93.4% 6.6%
    x264 [info]: kb/s:4305.02
    x264 [total]: encoded 147308 frames, 7.48 fps, 4305.02 kb/s, duration 5:28:20.98

    Screenshots

    Comparison

    Source

    Encode



    Скачать .torrent

    Скачать торрент-файл бесплатно и на максимальной скорости!

    Как скачивать? · Что такое торрент? · Рейтинг и ограничения

    !ВНИМАНИЕ!
    Сайт не распространяет и не хранит электронные версии произведений, а занимается лишь лишь предоставлением доступа к создаваемому пользователями каталогу ссылок на торрент-файлы, которые содержат только списки хеш-сумм, убедительная просьба с жалобами обращаться напрямую к пользователю. Файлы для обмена на трекере предоставлены пользователями сайта, и администрация не несёт ответственности за их содержание. Просьба не заливать файлы, защищенные авторскими правами, а также файлы нелегального содержания!


    _________________
    [Профиль] [ЛС]
    Показать сообщения:    
    Ответить на тему

    Текущее время: Сегодня, в 21:50

    Часовой пояс: GMT + 2



    Вы не можете начинать темы
    Вы не можете отвечать на сообщения
    Вы не можете редактировать свои сообщения
    Вы не можете удалять свои сообщения
    Вы не можете голосовать в опросах
    Вы не можете прикреплять файлы к сообщениям
    Вы не можете скачивать файлы