BitTorrentTracker PerecTracker.org
BitTorrentTracker PerecTracker.org
    
Регистрация  ·  Вход
 
 · 
Забыли пароль?

  • Джой / Joy (Дэвид О. Расселл / David O. Russell) [2015, США, Драма, комедия, биография, WEB-DL, HD (720p)] DUB + Original + sub (rus, eng, ukr)

    Ответить на тему
     
    Автор Сообщение

    rechyn

    Создавать темы 10-Апр-2016 00:09

           

    [Цитировать]

    Джой / Joy
    «In America the ordinary needs the extraordinary every single day»
    6.582 / 10 6.60 / 10
    -Год выпуска: 2015
    Страна: США
    Жанр: Драма, комедия, биография
    Продолжительность: 02:04:19
    Перевод: Дублированный (iTunes)
    Оригинальная аудиодорожка: Есть
    Cубтитры: Русские, Английские, Украинские
    Режиссёр: Дэвид О. Расселл
    Сценарий: Дэвид О. Расселл, Энни Мумоло
    Продюсер: Джон Дэвис, Меган Эллисон, Джон Гордон
    Оператор: Линус Сандгрен
    Композитор: Дэвид Кэмпбелл, Уэст Дилан Тордсон
    Художник: Джуди Бекер, Питер Рогнесс, Майкл Уилкинсон
    Монтаж: Алан Баумгартен, Джей Кэссиди, Том Кросс
    В ролях: Дженнифер Лоуренс, Роберт Де Ниро, Брэдли Купер, Эдгар Рамирес, Даша Поланко, Вирджиния Мэдсен, Изабелла Росселлини, Изабелла Крамп, Элизабет Рём, Ондреа Гадсби
    Бюджет: $60 000 000
    Сборы в США: $56 451 232
    Сборы в мире: + $44 632 277 = $101 083 509
    Сборы в России: $545 687
    Мировая премьера: 13 декабря 2015
    Премьера (РФ): 21 января 2016, «Двадцатый Век Фокс СНГ»
    Описание: Волнующая история четырех поколений семьи. В центре сюжета — девушка Джой, превращающаяся в женщину, которая становится основательницей бизнес-династии и ее главой. Предательство и измена, потеря невинности и шрамы любви открывают дорогу в эмоциональную комедию о том, как стать истинным лидером семьи, и о том, как любое предприятие неумолимо сталкивается с миром коммерции. Союзники и противники меняются местами как внутри, так и вне семьи, и только внутренние переживания и неистовое воображение Джой помогают ей пройти через поджидающие ее жизненные бури.-Качество исходника: WEB-DL 720p (HDClub)
    Качество: WEB-DL
    Тип: HD (720p)
    Контейнер: M4V
    Видео: H.264, 1280x690, 1.85:1, 3 902 Kbps, 23.976 fps
    Аудио 1: Русский/Дублированный (iTunes), AAC / 2.0 / 154 Kbps / 48.0 KHz
    Аудио 2: Английский/Оригинальная дорожка , AAC / 2.0 / 153 Kbps / 48.0 KHz
    Аудио 3: Русский/Дублированный (iTunes), AC-3 / 5.1 / 384 Kbps / 48.0 KHz
    Субтитры 1: Русские полные
    Субтитры 2: Английские полные
    Субтитры 3: Украинские полные
    -

    iTunes Meta Tags

    Sort Name: Joy
    XID: Apple:vendor_id:2015-713051
    contentID: 1068333966
    Copyright: © 2015 Twentieth Century Fox Film Corporation. All rights reserved.
    Screenwriters: Дэвид О. Расселл, Энни Мумоло
    Producers: Джон Дэвис, Меган Эллисон, Джон Гордон
    Director: Дэвид О. Расселл
    Cast: Дженнифер Лоуренс, Роберт Де Ниро, Брэдли Купер, Эдгар Рамирес, Даша Поланко, Вирджиния Мэдсен, Изабелла Росселлини, Изабелла Крамп, Элизабет Рём, Ондреа Гадсби, Наталья Грачёва, Никита Прозоровский, Василий Дахненко, Сергей Смирнов, Анна Киселева
    Studio: 20th Century Fox
    Rating: 4
    Long Description: Волнующая история четырех поколений семьи. В центре сюжета - девушка Джой, превращающаяся в женщину, которая становится основательницей бизнес-династии и ее главой. Предательство и измена, потеря невинности и шрамы любви открывают дорогу в эмоциональную комедию о том, как стать истинным лидером семьи, и о том, как любое предприятие неумолимо сталкивается с миром коммерции. Союзники и противники меняются местами как внутри, так и вне семьи, и только внутренние переживания и неистовое воображение Джой помогают ей пройти через поджидающие ее жизненные бури.
    Description: Волнующая история четырех поколений семьи. В центре сюжета - девушка Джой, превращающаяся в женщину, которая становится основательницей бизнес-династии и ее главой. Предательство и измена, потеря невинности и шрамы любви открывают дорогу в эмоциональную комедию о том, как стать истинным лидером семьи, и о том, как любое предприятие неумолимо сталкивается с миром коммерции. Союзники и противники меняются местами как внутри, так и вне семьи, и только внутренние переживания и неистовое воображение Джой помогают ей пройти через поджидающие ее жизненные бури.
    Release Date: 2015-12-13T08:00:00Z
    Genre: Drama
    Artist: David O. Russell
    Name: Joy

    MediaInfo

    General
    Complete name : /Users/imac/HandBrake/Joy.720p.WEB-DL.m4v
    Format : MPEG-4
    Codec ID : M4V  (M4V /M4A /mp42/isom)
    File size : 4.00 GiB
    Duration : 2h 4mn
    Overall bit rate mode : Variable
    Overall bit rate : 4 603 Kbps
    Movie name : Joy
    Performer : David O. Russell
    Director : Дэвид О. Расселл
    Actor : Дженнифер Лоуренс / Роберт Де Ниро / Брэдли Купер / Эдгар Рамирес / Даша Поланко / Вирджиния Мэдсен / Изабелла Росселлини / Изабелла Крамп / Элизабет Рём / Ондреа Гадсби / Наталья Грачёва / Никита Прозоровский / Василий Дахненко / Сергей Смирнов / Анна Киселева
    Screenplay by : Дэвид О. Расселл / Энни Мумоло
    Producer : Джон Дэвис / Меган Эллисон / Джон Гордон
    Production studio : 20th Century Fox
    Genre : Drama
    ContentType : Short Film
    Description : Волнующая история четырех поколений семьи. В центре сюжета - девушка Джой, превращающаяся в женщину, которая становится основательницей бизнес-династии и ее главой. Предательство и измена, потеря невинности и шрамы любви открывают дорогу в эмоциональную комедию о том, как стать истинным лидером семьи, и о том, как любое предприятие неумолимо сталкивается с миром коммерции. Союзники и противники меняются местами как внутри, так и вне семьи, и только внутренние переживания и неистовое воображение Джой помогают ей пройти через поджидающие ее жизненные бури.
    Recorded date : UTC 2015-12-13 08:00:00
    Encoded date : UTC 2016-04-09 08:23:49
    Tagged date : UTC 2016-04-09 08:26:06
    Copyright : © 2015 Twentieth Century Fox Film Corporation. All rights reserved.
    Cover : Yes
    Rating : None
    Title/Sort : Joy
    LongDescription : Волнующая история четырех поколений семьи. В центре сюжета - девушка Джой, превращающаяся в женщину, которая становится основательницей бизнес-династии и ее главой. Предательство и измена, потеря невинности и шрамы любви открывают дорогу в эмоциональную комедию о том, как стать истинным лидером семьи, и о том, как любое предприятие неумолимо сталкивается с миром коммерции. Союзники и противники меняются местами как внутри, так и вне семьи, и только внутренние переживания и неистовое воображение Джой помогают ей пройти через поджидающие ее жизненные бури.
    HDVideo : Yes
    AppleStoreCatalogID : 1068333966
    Vendor : Apple:vendor_id:2015-713051
    ContentRating : mpaa|PG-13|300|
    Video #1
    ID : 1
    Format : AVC
    Format/Info : Advanced Video Codec
    Format profile : High@L3.1
    Format settings, CABAC : No
    Format settings, ReFrames : 2 frames
    Format settings, GOP : M=2, N=90
    Codec ID : avc1
    Codec ID/Info : Advanced Video Coding
    Duration : 2h 4mn
    Bit rate : 3 902 Kbps
    Width : 1 280 pixels
    Height : 690 pixels
    Display aspect ratio : 1.85:1
    Frame rate mode : Variable
    Frame rate : 23.976 fps
    Minimum frame rate : 23.810 fps
    Maximum frame rate : 25.641 fps
    Color space : YUV
    Chroma subsampling : 4:2:0
    Bit depth : 8 bits
    Scan type : Progressive
    Bits/(Pixel*Frame) : 0.184
    Stream size : 3.39 GiB (85%)
    Title : Main Program
    Language : English
    Encoded date : UTC 2016-04-09 08:23:49
    Tagged date : UTC 2016-04-09 08:25:27
    Color range : Limited
    Color primaries : BT.709
    Transfer characteristics : BT.709
    Matrix coefficients : BT.709
    Menus : 8,9
    Video #2
    ID : 9
    Format : JPEG
    Codec ID : jpeg
    Duration : 2h 4mn
    Bit rate mode : Variable
    Bit rate : 1 141 bps
    Width : 640 pixels
    Height : 345 pixels
    Display aspect ratio : 1.85:1
    Frame rate mode : Variable
    Frame rate : 0.003 fps
    Minimum frame rate : 0.002 fps
    Maximum frame rate : 0.005 fps
    Color space : YUV
    Chroma subsampling : 4:2:0
    Bit depth : 8 bits
    Compression mode : Lossy
    Bits/(Pixel*Frame) : 1.723
    Stream size : 1.09 MiB (0%)
    Title : Chapter Images
    Language : English
    Default : No
    Encoded date : UTC 2016-04-09 08:25:32
    Tagged date : UTC 2016-04-09 08:25:33
    Menu For : 1
    Audio #1
    ID : 2
    Format : AAC
    Format/Info : Advanced Audio Codec
    Format profile : LC
    Codec ID : 40
    Duration : 2h 4mn
    Bit rate mode : Variable
    Bit rate : 154 Kbps
    Maximum bit rate : 250 Kbps
    Channel(s) : 2 channels
    Channel positions : Front: L R
    Sampling rate : 48.0 KHz
    Frame rate : 46.875 fps (1024 spf)
    Compression mode : Lossy
    Stream size : 137 MiB (3%)
    Title : Russian Stereo
    Language : Russian
    Default : Yes
    Alternate group : 1
    Encoded date : UTC 2016-04-09 08:23:49
    Tagged date : UTC 2016-04-09 08:24:19
    Fallback From : 4
    Audio #2
    ID : 3
    Format : AAC
    Format/Info : Advanced Audio Codec
    Format profile : LC
    Codec ID : 40
    Duration : 2h 4mn
    Bit rate mode : Variable
    Bit rate : 153 Kbps
    Maximum bit rate : 257 Kbps
    Channel(s) : 2 channels
    Channel positions : Front: L R
    Sampling rate : 48.0 KHz
    Frame rate : 46.875 fps (1024 spf)
    Compression mode : Lossy
    Stream size : 136 MiB (3%)
    Title : English Stereo
    Language : English
    Default : No
    Alternate group : 1
    Encoded date : UTC 2016-04-09 08:23:49
    Tagged date : UTC 2016-04-09 08:24:19
    Audio #3
    ID : 4
    Format : AC-3
    Format/Info : Audio Coding 3
    Mode extension : CM (complete main)
    Format settings, Endianness : Big
    Codec ID : ac-3
    Duration : 2h 4mn
    Bit rate mode : Constant
    Bit rate : 384 Kbps
    Channel(s) : 6 channels
    Channel positions : Front: L C R, Side: L R, LFE
    Sampling rate : 48.0 KHz
    Frame rate : 31.250 fps (1536 spf)
    Bit depth : 16 bits
    Compression mode : Lossy
    Stream size : 341 MiB (8%)
    Title : Russian DD 5.1
    Language : Russian
    Default : Inherited From: 2
    Alternate group : 1
    Encoded date : UTC 2016-04-09 08:23:49
    Tagged date : UTC 2016-04-09 08:24:19
    Fallback To : 2
    Text #1
    ID : 5
    Format : Timed Text
    Muxing mode : sbtl
    Codec ID : tx3g
    Duration : 2h 3mn
    Bit rate mode : Variable
    Bit rate : 125 bps
    Stream size : 113 KiB (0%)
    Title : Russian Full-length
    Language : Russian
    Default : Yes
    Forced : No
    Alternate group : 2
    Encoded date : UTC 2016-04-09 08:23:49
    Tagged date : UTC 2016-04-09 08:24:17
    Text #2
    ID : 6
    Format : Timed Text
    Muxing mode : sbtl
    Codec ID : tx3g
    Duration : 1h 56mn
    Bit rate mode : Variable
    Bit rate : 98 bps
    Stream size : 83.3 KiB (0%)
    Title : English Full-length
    Language : English
    Default : No
    Forced : No
    Alternate group : 2
    Encoded date : UTC 2016-04-09 08:23:49
    Tagged date : UTC 2016-04-09 08:24:17
    Text #3
    ID : 7
    Format : Timed Text
    Muxing mode : sbtl
    Codec ID : tx3g
    Duration : 2h 3mn
    Bit rate mode : Variable
    Bit rate : 144 bps
    Stream size : 131 KiB (0%)
    Title : Ukrainian Full-length
    Language : Ukrainian
    Default : No
    Forced : No
    Alternate group : 2
    Encoded date : UTC 2016-04-09 08:23:49
    Tagged date : UTC 2016-04-09 08:24:17
    Menu #1
    00:00:00.000 : 1
    00:06:14.082 : 2
    00:09:54.093 : 3
    00:13:43.030 : 4
    00:19:26.748 : 5
    00:22:54.831 : 6
    00:28:09.312 : 7
    00:32:45.671 : 8
    00:36:53.627 : 9
    00:44:02.806 : 10
    00:48:17.018 : 11
    00:53:25.826 : 12
    00:56:57.913 : 13
    01:01:13.126 : 14
    01:06:48.669 : 15
    01:12:52.491 : 16
    01:16:56.443 : 17
    01:20:53.763 : 18
    01:26:14.208 : 19
    01:30:24.833 : 20
    01:35:51.075 : 21
    01:41:28.704 : 22
    01:47:24.351 : 23
    01:53:58.620 : 24
    Menu #2
    ID : 8
    Codec ID : text
    Duration : 2h 4mn
    Language : English
    Encoded date : UTC 2016-04-09 08:25:27
    Tagged date : UTC 2016-04-09 08:25:27
    Menu For : 1
    00:00:00.000 : 1
    00:06:14.082 : 2
    00:09:54.093 : 3
    00:13:43.030 : 4
    00:19:26.748 : 5
    00:22:54.831 : 6
    00:28:09.312 : 7
    00:32:45.671 : 8
    00:36:53.627 : 9
    00:44:02.806 : 10
    00:48:17.018 : 11
    00:53:25.826 : 12
    00:56:57.913 : 13
    01:01:13.126 : 14
    01:06:48.669 : 15
    01:12:52.491 : 16
    01:16:56.443 : 17
    01:20:53.763 : 18
    01:26:14.208 : 19
    01:30:24.833 : 20
    01:35:51.075 : 21
    01:41:28.704 : 22
    01:47:24.351 : 23
    01:53:58.620 : 24
    Bit rate mode : VBR

    Скриншоты

    -

    Релиз подготовлен для просмотра на Apple TV, iPad, iPhone, iPod Touch.
    Для просмотра данного релиза на компьютере с ОС Windows рекомендуется использовать VLC media player
    Скачать .torrent

    Скачать торрент-файл бесплатно и на максимальной скорости!

    Как скачивать? · Что такое торрент? · Рейтинг и ограничения

    !ВНИМАНИЕ!
    Сайт не распространяет и не хранит электронные версии произведений, а занимается лишь лишь предоставлением доступа к создаваемому пользователями каталогу ссылок на торрент-файлы, которые содержат только списки хеш-сумм, убедительная просьба с жалобами обращаться напрямую к пользователю. Файлы для обмена на трекере предоставлены пользователями сайта, и администрация не несёт ответственности за их содержание. Просьба не заливать файлы, защищенные авторскими правами, а также файлы нелегального содержания!


    _________________
    [Профиль] [ЛС]
    Показать сообщения:    
    Ответить на тему

    Текущее время: Сегодня, в 20:57

    Часовой пояс: GMT + 2



    Вы не можете начинать темы
    Вы не можете отвечать на сообщения
    Вы не можете редактировать свои сообщения
    Вы не можете удалять свои сообщения
    Вы не можете голосовать в опросах
    Вы не можете прикреплять файлы к сообщениям
    Вы не можете скачивать файлы