BitTorrentTracker PerecTracker.org
BitTorrentTracker PerecTracker.org
    
Регистрация  ·  Вход
 
 · 
Забыли пароль?

  • (House, Hardcore, Techno, Hip Hop, Euro House) [CD] Various - Dance Max 7 - 1992, FLAC (image+.cue), lossless

    Ответить на тему
     
    Автор Сообщение

    Columb

    Создавать темы 22-Янв-2014 07:50

           

    [Цитировать]

    Various - Dance Max 7
    Жанр: House, Hardcore, Techno, Hip Hop, Euro House
    Носитель: CD
    Страна-производитель диска: Germany
    Год издания: 1992
    Издатель (лейбл): EMI Electrola
    Номер по каталогу: 686-7 98853 2
    Страна: Europe
    Аудиокодек: FLAC (*.flac)
    Тип рипа: image+.cue
    Битрейт аудио: lossless
    Продолжительность: 1:00:35.48+1:00:37.73
    Источник (релизер): Собственный рип
    Наличие сканов в содержимом раздачи: нет
    Треклист:
    1.01 KLF, The – Justified & Ancient (All Bound For Mu Mu Land) 7:47
    1.02 Interactive – Who Is Elvis (Phenomania Remix) 5:40
    1.03 2 Unlimited – Twilight Zone (Rave Mix) 5:42
    1.04 De La Soul – Keepin' The Faith (Just A Touch Mix) 5:38
    1.05 Montana Sextet Feat. Nadiyah – Ride Like The Wind (Beat Of The Westside Mix) 5:43
    1.06 Various Items – Das Boot (12" Version) 5:20
    1.07 Instant Family, The – How Gee (Maxi Version) 4:26
    1.08 Misteria – Who Killed JFK (Agressorativ Cut) 5:35
    1.09 A.N.T. – Meet The Addams Family (House Mix 12") 5:00
    1.10 Chocolate – La Ola II (Teckno Age Mix) 4:45
    1.11 Chariff – I Love Your Smile (Rap Version) (Happiness Remix) 4:38
    2.01 Marky Mark & The Funky Bunch – Wildside (Club Remix) 5:38
    2.02 DNA Feat. Sharon Redd – Can You Handle It (Maurice's Classic Mix)6:28
    2.03 Capella* With Loletta Holloway* – Take Me Away (Extended Mix) 6:19
    2.04 EN-Sonic – One Love (Remix) 5:51
    2.05 Holy Noise Feat. Global Insert Project, The – James Brown Is Still Alive!! (HN Style) 5:30
    2.06 Naughty By Nature – O.P.P. (Ultimix) 6:41
    2.07 Right Said Fred – Don't Talk Just Kiss (Beat-Nicked Mix) 4:58
    2.08 LDC – Die Schwarze Zone 8:11
    2.09 Myrdin – Heute Nacht Wird Durchgemacht (Maxi-Remix) 5:51
    2.10 Werner Wichtig – Let's Talk About Sex (Large Condom-Version) 5:03

    Лог создания рипа

    Exact Audio Copy V1.0 beta 3 from 29. August 2011
    Отчёт EAC об извлечении, выполненном 19. января 2014, 12:49
    Various Artists / Dance Max 7 (Disc 1)
    Дисковод: Optiarc DVD RW AD-7240S Adapter: 1 ID: 0
    Режим чтения : ДостоверностьИспользование точного потока : ДаОтключение кэша аудио : ДаИспользование указателей C2 : Нет
    Коррекция смещения при чтении : 48Способность читать области Lead-in и Lead-out : НетЗаполнение пропущенных сэмплов тишиной : ДаУдаление блоков с тишиной в начале и конце : НетПри вычислениях CRC использовались нулевые сэмплы : ДаИнтерфейс : Встроенный Win32-интерфейс для Win NT/2000
    Выходной формат : Пользовательский кодировщикВыбранный битрейт : 768 kBit/sКачество : ВысокийДобавление ID3-тега : НетУтилита сжатия : C:\Program Files\Exact Audio Copy\FLAC\FLAC.EXEДополнительные параметры : -V -8 -T "Date=%year%" -T "Genre=%genre%" %source%
    TOC извлечённого CD
    Трек | Старт | Длительность | Начальный сектор | Конечный сектор --------------------------------------------------------------------- 1 | 0:00.00 | 7:50.58 | 0 | 35307 2 | 7:50.58 | 5:41.72 | 35308 | 60954 3 | 13:32.55 | 5:40.38 | 60955 | 86492 4 | 19:13.18 | 5:40.02 | 86493 | 111994 5 | 24:53.20 | 5:44.50 | 111995 | 137844 6 | 30:37.70 | 5:22.43 | 137845 | 162037 7 | 36:00.38 | 4:27.50 | 162038 | 182112 8 | 40:28.13 | 5:39.12 | 182113 | 207549 9 | 46:07.25 | 4:59.18 | 207550 | 229992 10 | 51:06.43 | 4:49.47 | 229993 | 251714 11 | 55:56.15 | 4:39.33 | 251715 | 272672
    Характеристики диапазона извлечения и сообщения об ошибках
    Выбранный диапазон
    Имя файла C:\EAC\Various ‎– Dance Max – 7 (EMI Electrola ‎– 686-7 98853 2)\CD 1\Various Artists - Dance Max 7 (Disc 1).wav
    Пиковый уровень 94.5 % Скорость извлечения 4.1 X Качество диапазона 99.9 % CRC теста ED4232DB CRC копии ED4232DB Копирование... OK
    Ошибок не произошло
    AccurateRip: сводка
    Трек 1 : извлечено точно (доверие 4) [FDAFC76E] (AR v2)Трек 2 : извлечено точно (доверие 5) [003BC2A5] (AR v2)Трек 3 : извлечено точно (доверие 5) [7B10DEFF] (AR v2)Трек 4 : извлечено точно (доверие 5) [DEFCB26C] (AR v2)Трек 5 : извлечено точно (доверие 5) [083B54E2] (AR v2)Трек 6 : извлечено точно (доверие 5) [6EE75666] (AR v2)Трек 7 : извлечено точно (доверие 5) [AA9ADC03] (AR v2)Трек 8 : извлечено точно (доверие 4) [B14E8871] (AR v2)Трек 9 : извлечено точно (доверие 5) [C0EBD4A4] (AR v2)Трек 10 : извлечено точно (доверие 5) [39DFAC5A] (AR v2)Трек 11 : извлечено точно (доверие 5) [7EB0EE15] (AR v2)
    Все треки извлечены точно
    Конец отчёта
    ==== Контрольная сумма отчёта A8477449A69B20633FAE00C5C2699ECF967BA2C1FF8F4068AA859869CEFD8135 ====Exact Audio Copy V1.0 beta 3 from 29. August 2011
    Отчёт EAC об извлечении, выполненном 19. января 2014, 13:28
    Various Artists / Dance Max 7 (Disc 2)
    Дисковод: Optiarc DVD RW AD-7240S Adapter: 1 ID: 0
    Режим чтения : ДостоверностьИспользование точного потока : ДаОтключение кэша аудио : ДаИспользование указателей C2 : Нет
    Коррекция смещения при чтении : 48Способность читать области Lead-in и Lead-out : НетЗаполнение пропущенных сэмплов тишиной : ДаУдаление блоков с тишиной в начале и конце : НетПри вычислениях CRC использовались нулевые сэмплы : ДаИнтерфейс : Встроенный Win32-интерфейс для Win NT/2000
    Выходной формат : Пользовательский кодировщикВыбранный битрейт : 768 kBit/sКачество : ВысокийДобавление ID3-тега : НетУтилита сжатия : C:\Program Files\Exact Audio Copy\FLAC\FLAC.EXEДополнительные параметры : -V -8 -T "Date=%year%" -T "Genre=%genre%" %source%
    TOC извлечённого CD
    Трек | Старт | Длительность | Начальный сектор | Конечный сектор --------------------------------------------------------------------- 1 | 0:00.00 | 5:39.25 | 0 | 25449 2 | 5:39.25 | 6:27.03 | 25450 | 54477 3 | 12:06.28 | 6:21.57 | 54478 | 83109 4 | 18:28.10 | 5:51.03 | 83110 | 109437 5 | 24:19.13 | 5:32.25 | 109438 | 134362 6 | 29:51.38 | 6:44.07 | 134363 | 164669 7 | 36:35.45 | 4:58.03 | 164670 | 187022 8 | 41:33.48 | 8:11.00 | 187023 | 223847 9 | 49:44.48 | 5:51.60 | 223848 | 250232 10 | 55:36.33 | 5:01.40 | 250233 | 272847
    Характеристики диапазона извлечения и сообщения об ошибках
    Выбранный диапазон
    Имя файла C:\EAC\Various ‎– Dance Max – 7 (EMI Electrola ‎– 686-7 98853 2)\CD 2\Various Artists - Dance Max 7 (Disc 2).wav
    Пиковый уровень 96.9 % Скорость извлечения 4.2 X Качество диапазона 100.0 % CRC теста BB09BE11 CRC копии BB09BE11 Копирование... OK
    Ошибок не произошло
    AccurateRip: сводка
    Трек 1 : извлечено точно (доверие 4) [5AEB6191] (AR v2)Трек 2 : извлечено точно (доверие 4) [EE423D03] (AR v2)Трек 3 : извлечено точно (доверие 4) [48B8A36C] (AR v2)Трек 4 : извлечено точно (доверие 4) [69BA222F] (AR v2)Трек 5 : извлечено точно (доверие 4) [973E712E] (AR v2)Трек 6 : извлечено точно (доверие 4) [7E815A4C] (AR v2)Трек 7 : извлечено точно (доверие 4) [BB3DB34A] (AR v2)Трек 8 : извлечено точно (доверие 4) [1C767D0E] (AR v2)Трек 9 : извлечено точно (доверие 3) [C3B6F6B1] (AR v2)Трек 10 : извлечено точно (доверие 4) [812F3948] (AR v2)
    Все треки извлечены точно
    Конец отчёта
    ==== Контрольная сумма отчёта 73B71772B2D129C7CD664C7413B944559045E75DEAC490417A482C0531287EA5 ====

    Скриншот спектра частот


    Скачать .torrent

    Скачать торрент-файл бесплатно и на максимальной скорости!

    Как скачивать? · Что такое торрент? · Рейтинг и ограничения

    !ВНИМАНИЕ!
    Сайт не распространяет и не хранит электронные версии произведений, а занимается лишь лишь предоставлением доступа к создаваемому пользователями каталогу ссылок на торрент-файлы, которые содержат только списки хеш-сумм, убедительная просьба с жалобами обращаться напрямую к пользователю. Файлы для обмена на трекере предоставлены пользователями сайта, и администрация не несёт ответственности за их содержание. Просьба не заливать файлы, защищенные авторскими правами, а также файлы нелегального содержания!

    [Профиль] [ЛС]
    Показать сообщения:    
    Ответить на тему

    Текущее время: Сегодня, в 20:07

    Часовой пояс: GMT + 2



    Вы не можете начинать темы
    Вы не можете отвечать на сообщения
    Вы не можете редактировать свои сообщения
    Вы не можете удалять свои сообщения
    Вы не можете голосовать в опросах
    Вы не можете прикреплять файлы к сообщениям
    Вы не можете скачивать файлы