Register  ·  Log in
Forgot password?

  • Студент со связями / The preppie connection (Джозеф Кастело / Josef Castelo) [2015, Пуэрто Рико, США, Драма, криминал, HDRip] DVO (А. Глинский) + Original Eng

    Reply to topic
    Author Message


    Post 10-Apr-2016 01:09



    Студент со связями / Частники / The preppie connection
    Страна: Пуэрто Рико, США
    Жанр: Драма, криминал
    Год выпуска: 2015
    Продолжительность: 01:36:54
    Перевод: Любительский (двухголосый закадровый) А. Глинский
    Cубтитры: нет
    Оригинальная аудиодорожка: английский
    Режиссер: Джозеф Кастело / Joseph Castelo
    В ролях: Томас Манн, Люси Фрай, Сэмюэл Пейдж, Эми Харгривз, Логан Хаффман
    Описание: Драматизация реальной истории ученика одной из престижных частных школ Америки 80-х, наладившего с помощью нужных связей трафик кокаина из Колумбии.
    Доп. информация: Ровная, спокойная работа, ничего нового, но чем-то цепляет. Хороший саундтрек.
    Качество видео: HDRip
    Формат видео: AVI
    Видео: XviD, MPEG-4, 720x304, 2.35:1, 23.976 fps, 1 640 Kbps
    Аудио: MP3, 44.1kHz, 112 kbps, 2 channels, перевод
    Аудио 2: AC3, 48 kHz, 384 kbps, Front: L C R, Side: L R, LFE, english


    Complete name : C:\Documents and Settings\Мои документы\Films Making\Rutr 1.38\The Preppie Connection.avi
    Format : AVI
    Format/Info : Audio Video Interleave
    File size : 1.46 GiB
    Duration : 1h 36mn
    Overall bit rate : 2 150 Kbps
    Writing application : VirtualDubMod (build 2540/release)
    Writing library : VirtualDubMod build 2540/release
    ID : 0
    Format : MPEG-4 Visual
    Format profile : Advanced Simple@L5
    Format settings, BVOP : 2
    Format settings, QPel : No
    Format settings, GMC : No warppoints
    Format settings, Matrix : Default (H.263)
    Codec ID : XVID
    Codec ID/Hint : XviD
    Duration : 1h 36mn
    Bit rate : 1 640 Kbps
    Width : 720 pixels
    Height : 304 pixels
    Display aspect ratio : 2.35:1
    Frame rate : 23.976 fps
    Color space : YUV
    Chroma subsampling : 4:2:0
    Bit depth : 8 bits
    Scan type : Progressive
    Compression mode : Lossy
    Bits/(Pixel*Frame) : 0.312
    Stream size : 1.11 GiB (76%)
    Writing library : XviD 66
    Audio #1
    ID : 1
    Format : MPEG Audio
    Format version : Version 1
    Format profile : Layer 3
    Mode : Joint stereo
    Mode extension : MS Stereo
    Codec ID : 55
    Codec ID/Hint : MP3
    Duration : 1h 36mn
    Bit rate mode : Constant
    Bit rate : 112 Kbps
    Channel(s) : 2 channels
    Sampling rate : 44.1 KHz
    Compression mode : Lossy
    Stream size : 77.6 MiB (5%)
    Alignment : Split accross interleaves
    Interleave, duration : 42 ms (1.00 video frame)
    Interleave, preload duration : 500 ms
    Writing library : LAME3.98.4
    Audio #2
    ID : 2
    Format : AC-3
    Format/Info : Audio Coding 3
    Mode extension : CM (complete main)
    Format settings, Endianness : Big
    Codec ID : 2000
    Duration : 1h 36mn
    Bit rate mode : Constant
    Bit rate : 384 Kbps
    Channel(s) : 6 channels
    Channel positions : Front: L C R, Side: L R, LFE
    Sampling rate : 48.0 KHz
    Bit depth : 16 bits
    Compression mode : Lossy
    Stream size : 266 MiB (18%)
    Alignment : Aligned on interleaves
    Interleave, duration : 42 ms (1.00 video frame)
    Interleave, preload duration : 512 ms

    Скриншот c названием фильма


    Download .torrent

    Download free and at maximum speed!

    How to Download? · What is a torrent? · Ratings and Limitations

    The site does not extend and does not store electronic(digital) versions of products, and only gives access to a reference catalogue created by users on torrent-files which contain only lists of the hash-sums, the earnest entreaty, with complaints(abuse) to access directly to the user. Files for an exchange on tracker are given by users of a site, and the administration does not bear the responsibility for their maintenance. The request to not fill in the files protected by copyrights, and also files of the illegal maintenance!

    [Profile] [PM]
    Display posts from previous:    
    Reply to topic

    The time now is: Today 05:18

    All times are GMT + 3 Hours

    You cannot post new topics in this forum
    You cannot reply to topics in this forum
    You cannot edit your posts in this forum
    You cannot delete your posts in this forum
    You cannot vote in polls in this forum
    You cannot attach files in this forum
    You cannot download files in this forum