Register  ·  Log in
Forgot password?

  • Прощальный квартет / Поздний квартет / A Late Quartet (Ярон Зильберман / Yaron Zilberman) [2012, США, драма, музыка, BDRip] AVO (Ю.Сербин)

    Reply to topic
    Author Message


    Post 10-Apr-2016 01:09



    Прощальный квартет / Поздний квартет / A Late Quartet
    Страна: США
    Жанр: драма, музыка
    Год выпуска: 2012
    Продолжительность: 01:46:09
    Перевод: Авторский (одноголосый закадровый) Ю.Сербин
    Cубтитры: нет
    Оригинальная аудиодорожка: нет-Режиссер: Ярон Зильберман / Yaron Zilberman-В ролях: Кэтрин Кинер, Кристофер Уокен, Филип Сеймур Хоффман, Марк Иванир, Имоджен Путс, Мадхур Джаффри, Лираз Чархи, Уоллес Шоун, Памела Куинн,
    Бруклин Паркинсон Груп-Описание: История знаменитого на весь мир квартета, который празднует 25-тилетнюю годовщину.-
    -Качество видео: BDRip | A Late Quartet (2012) 1080p BD-Remux HDClub
    Формат видео: AVI
    Видео: 720x304 (2.37:1), 23.976 fps, XviD build 73 ~1584 kbps avg, 0.30 bit/pixel
    Аудио: 48 kHz, AC3 Dolby Digital, 3/2 (L,C,R,l,r) + LFE ch, ~384 kbps-Скачать сэмплMediaInfo
    Format                      : AVI
    Format/Info                 : Audio Video Interleave
    File size                   : 1.47 GiB
    Duration                    : 1h 46mn
    Overall bit rate            : 1 978 Kbps
    Writing application         : VirtualDubMod | || (build 2550/release)
    Writing library             : VirtualDubMod build 2550/release
    ID                          : 0
    Format                      : MPEG-4 Visual
    Format profile              : Advanced Simple@L5
    Format settings, BVOP       : 1
    Format settings, QPel       : No
    Format settings, GMC        : No warppoints
    Format settings, Matrix     : Default (MPEG)
    Codec ID                    : XVID
    Codec ID/Hint               : XviD
    Duration                    : 1h 46mn
    Bit rate                    : 1 585 Kbps
    Width                       : 720 pixels
    Height                      : 304 pixels
    Display aspect ratio        : 2.35:1
    Frame rate                  : 23.976 (23976/1000) fps
    Color space                 : YUV
    Chroma subsampling          : 4:2:0
    Bit depth                   : 8 bits
    Scan type                   : Progressive
    Compression mode            : Lossy
    Bits/(Pixel*Frame)          : 0.302
    Stream size                 : 1.18 GiB (80%)
    Writing library             : XviD 73
    ID                          : 1
    Format                      : AC-3
    Format/Info                 : Audio Coding 3
    Mode extension              : CM (complete main)
    Format settings, Endianness : Big
    Codec ID                    : 2000
    Duration                    : 1h 46mn
    Bit rate mode               : Constant
    Bit rate                    : 384 Kbps
    Channel(s)                  : 6 channels
    Channel positions           : Front: L C R, Side: L R, LFE
    Sampling rate               : 48.0 KHz
    Frame rate                  : 31.250 fps (1536 spf)
    Compression mode            : Lossy
    Stream size                 : 292 MiB (19%)
    Alignment                   : Split accross interleaves
    Interleave, duration        : 42 ms (1.00 video frame)
    Interleave, preload duratio : 500 ms


    Download .torrent

    Download free and at maximum speed!

    How to Download? · What is a torrent? · Ratings and Limitations

    The site does not extend and does not store electronic(digital) versions of products, and only gives access to a reference catalogue created by users on torrent-files which contain only lists of the hash-sums, the earnest entreaty, with complaints(abuse) to access directly to the user. Files for an exchange on tracker are given by users of a site, and the administration does not bear the responsibility for their maintenance. The request to not fill in the files protected by copyrights, and also files of the illegal maintenance!

    [Profile] [PM]
    Display posts from previous:    
    Reply to topic

    The time now is: Today 04:56

    All times are GMT + 3 Hours

    You cannot post new topics in this forum
    You cannot reply to topics in this forum
    You cannot edit your posts in this forum
    You cannot delete your posts in this forum
    You cannot vote in polls in this forum
    You cannot attach files in this forum
    You cannot download files in this forum