BitTorrentTracker PerecTracker.org
BitTorrentTracker PerecTracker.org
    
Регистрация  ·  Вход
 
 · 
Забыли пароль?

  • 9 апреля / 9. april / April 9th (Рони Эзра / Roni Ezra) [2015, Дания, военный, исторический, драма, HDRip] VO (Д.Есарев)

    Ответить на тему
     
    Автор Сообщение

    Light

    Создавать темы 10-Апр-2016 00:09

           

    [Цитировать]

    9 апреля / 9. april
    Страна: Дания
    Жанр: драма, военный
    Год выпуска: 2015
    Продолжительность: 01:32:32
    Перевод: Одноголосый закадровый Д. Есарев
    Cубтитры: нет
    Оригинальная аудиодорожка: нет
    Режиссер: Рони Эзра / Roni Ezra
    В ролях: Ларс Миккельсен, Йохан Филип Асбек, Хоаким Фьелструп, Густав Дюэкьер Гис, Себастьян Булл Сарнинг, Мартин Грайс
    Описание: Ранним утром 9 апреля 1940 года датская армия была поднята по тревоге. Немцы перешли границу. Дания вступает в войну против сильнейшей армии в Европе.
    Сюжет фильма рассказывает о втором лейтенанте Сэнде и его велосипедной компании – в этот роковой час именно они будут первыми датскими солдатами встретившими врага в бою.
    Группа
    желает всем приятного просмотра!Качество видео: HDRip [BDRip 1080p]
    Формат видео: AVI
    Видео: 720x400 (1.80:1), 24 fps, XviD build 65 ~1934 kbps avg, 0.28 bit/pixel
    Аудио #1 : 48 kHz, AC3 Dolby Digital, 2/0 (L,R) ch, ~224 kbps

    Сэмпл: http://multi-up.com/1096583

    MediaInfo

    General
    Complete name : D:\Торренты\9. april_Drek_Rutracker.org.avi
    Format : AVI
    Format/Info : Audio Video Interleave
    File size : 1.40 GiB
    Duration : 1h 32mn
    Overall bit rate : 2 168 Kbps
    Writing application : VirtualDubMod 1.5.10.2 (build 2540/release)
    Writing library : VirtualDubMod build 2540/release
    Video
    ID : 0
    Format : MPEG-4 Visual
    Format profile : Advanced Simple@L5
    Format settings, BVOP : 2
    Format settings, QPel : No
    Format settings, GMC : No warppoints
    Format settings, Matrix : Custom
    Codec ID : XVID
    Codec ID/Hint : XviD
    Duration : 1h 32mn
    Bit rate : 1 935 Kbps
    Width : 720 pixels
    Height : 400 pixels
    Display aspect ratio : 16:9
    Frame rate : 24.000 fps
    Color space : YUV
    Chroma subsampling : 4:2:0
    Bit depth : 8 bits
    Scan type : Progressive
    Compression mode : Lossy
    Bits/(Pixel*Frame) : 0.280
    Stream size : 1.25 GiB (89%)
    Writing library : XviD 65
    Audio
    ID : 1
    Format : AC-3
    Format/Info : Audio Coding 3
    Mode extension : CM (complete main)
    Format settings, Endianness : Big
    Codec ID : 2000
    Duration : 1h 32mn
    Bit rate mode : Constant
    Bit rate : 224 Kbps
    Channel(s) : 2 channels
    Channel positions : Front: L R
    Sampling rate : 48.0 KHz
    Frame rate : 31.250 fps (1536 spf)
    Compression mode : Lossy
    Stream size : 148 MiB (10%)
    Alignment : Split accross interleaves
    Interleave, duration : 42 ms (1.00 video frame)
    Interleave, preload duratio : 500 ms
    Скриншоты
    Скачать .torrent

    Скачать торрент-файл бесплатно и на максимальной скорости!

    Как скачивать? · Что такое торрент? · Рейтинг и ограничения

    !ВНИМАНИЕ!
    Сайт не распространяет и не хранит электронные версии произведений, а занимается лишь лишь предоставлением доступа к создаваемому пользователями каталогу ссылок на торрент-файлы, которые содержат только списки хеш-сумм, убедительная просьба с жалобами обращаться напрямую к пользователю. Файлы для обмена на трекере предоставлены пользователями сайта, и администрация не несёт ответственности за их содержание. Просьба не заливать файлы, защищенные авторскими правами, а также файлы нелегального содержания!


    _________________
    [Профиль] [ЛС]
    Показать сообщения:    
    Ответить на тему

    Текущее время: Сегодня, в 15:45

    Часовой пояс: GMT + 2



    Вы не можете начинать темы
    Вы не можете отвечать на сообщения
    Вы не можете редактировать свои сообщения
    Вы не можете удалять свои сообщения
    Вы не можете голосовать в опросах
    Вы не можете прикреплять файлы к сообщениям
    Вы не можете скачивать файлы