Register  ·  Log in
Forgot password?

  • Последний обряд / Demonic (Уилл Кэнон / Will Canon) [2015, США, Великобритания, ужасы, триллер, HDRip] Dub

    Reply to topic
    Author Message


    Post 10-Apr-2016 01:09



    -Последний обряд / Demonic-Страна: США, Великобритания
    Жанр: ужасы, триллер
    Год выпуска: 2015
    Продолжительность: 01:23:43-Перевод: Профессиональный (дублированный)
    Cубтитры: нет-Режиссер: Уилл Кэнон / Will Canon-В ролях: Мария Белло, Фрэнк Грилло, Коуди Хорн, Дастин Миллиган, Меган Парк, Скотт Мехловиц, Аарон Йу, Алекс Гуд, Эштон Ли, Терренс Розмор-Описание: Жуткое убийство происходит в заброшенном доме. Полиция обнаруживает три трупа и одного выжившего свидетеля. Он рассказывает, что его друзья погибли во время спиритического- -Качество видео: HDRip
    Формат видео: AVI
    Видео: XviD 720x304 (2.35:1), 23.976 fps, 1 886 Kbps, 0.359 bit/pixel
    Аудио: 48 kHz, AC3 Dolby Digital, 3/2 (L,C,R,l,r) + LFE ch, ~448.00 kbps avg-


    Complete name : D:\Фильмы\Demonic.2015.D.HDRip.avi
    Format : AVI
    Format/Info : Audio Video Interleave
    File size : 1.37 GiB
    Duration : 1h 23mn
    Overall bit rate : 2 343 Kbps
    Movie name :
    Writing application : VirtualDubMod | || (build 2550/release)
    ID : 0
    Format : MPEG-4 Visual
    Format profile : Advanced Simple@L5
    Format settings, BVOP : 2
    Format settings, QPel : No
    Format settings, GMC : No warppoints
    Format settings, Matrix : Custom
    Codec ID : XVID
    Codec ID/Hint : XviD
    Duration : 1h 23mn
    Bit rate : 1 886 Kbps
    Width : 720 pixels
    Height : 304 pixels
    Display aspect ratio : 2.35:1
    Frame rate : 23.976 (23976/1000) fps
    Color space : YUV
    Chroma subsampling : 4:2:0
    Bit depth : 8 bits
    Scan type : Progressive
    Compression mode : Lossy
    Bits/(Pixel*Frame) : 0.359
    Stream size : 1.10 GiB (80%)
    Writing library : XviD 1.2.1 (UTC 2008-12-04)
    ID : 1
    Format : AC-3
    Format/Info : Audio Coding 3
    Mode extension : CM (complete main)
    Format settings, Endianness : Big
    Codec ID : 2000
    Duration : 1h 23mn
    Bit rate mode : Constant
    Bit rate : 448 Kbps
    Channel(s) : 6 channels
    Channel positions : Front: L C R, Side: L R, LFE
    Sampling rate : 48.0 KHz
    Frame rate : 31.250 fps (1536 spf)
    Compression mode : Lossy
    Stream size : 268 MiB (19%)
    Alignment : Split accross interleaves
    Interleave, duration : 42 ms (1.00 video frame)
    Interleave, preload duratio : 500 ms


    Скриншот c названием фильма


    Download .torrent

    Download free and at maximum speed!

    How to Download? · What is a torrent? · Ratings and Limitations

    The site does not extend and does not store electronic(digital) versions of products, and only gives access to a reference catalogue created by users on torrent-files which contain only lists of the hash-sums, the earnest entreaty, with complaints(abuse) to access directly to the user. Files for an exchange on tracker are given by users of a site, and the administration does not bear the responsibility for their maintenance. The request to not fill in the files protected by copyrights, and also files of the illegal maintenance!

    [Profile] [PM]
    Display posts from previous:    
    Reply to topic

    The time now is: Today 09:21

    All times are GMT + 3 Hours

    You cannot post new topics in this forum
    You cannot reply to topics in this forum
    You cannot edit your posts in this forum
    You cannot delete your posts in this forum
    You cannot vote in polls in this forum
    You cannot attach files in this forum
    You cannot download files in this forum