Register  ·  Log in
Forgot password?

  • 9 апреля / 9. april (Рони Эзра / Roni Ezra) [2015, Дания, драма, военный, BDRip] VO (Д. Есарев)

    Reply to topic
    Author Message


    Post 10-Apr-2016 01:09



    9 апреля / 9. april
    Страна: Дания
    Жанр: драма, военный
    Год выпуска: 2015
    Продолжительность: 01:32:32
    Перевод: Одноголосый закадровый - Д. Есарев
    Cубтитры: нет
    Оригинальная аудиодорожка: нет-Режиссер: Рони Эзра / Roni Ezra-В ролях: Ларс Миккельсен, Йохан Филип Асбек, Хоаким Фьелструп, Густав Дюэкьер Гис, Себастьян Булл Сарнинг, Мартин Грайс-Описание: Ранним утром 9 апреля 1940 года датская армия была поднята по тревоге. Немцы перешли границу. Дания вступает в войну против сильнейшей армии в Европе.
    Сюжет фильма рассказывает о втором лейтенанте Сэнде и его велосипедной компании – в этот роковой час именно они будут первыми датскими солдатами встретившими врага в бою.-
    -Качество видео: BDRip
    Формат видео: AVI
    Видео: 688x368 (1.87:1), 24.000 fps, XviD build 73 ~986 kbps avg, 0.16 bit/pixel
    Аудио: 48 kHz, MPEG Layer 3, 2 ch, ~128.00 kbps avg-Скачать сэмпл


    Format                      : AVI
    Format/Info                 : Audio Video Interleave
    File size                   : 744 MiB
    Duration                    : 1h 32mn
    Overall bit rate            : 1 124 Kbps
    Writing application         : VirtualDubMod | || (build 2550/release)
    Writing library             : VirtualDubMod build 2550/release
    ID                          : 0
    Format                      : MPEG-4 Visual
    Format profile              : Advanced Simple@L5
    Format settings, BVOP       : 1
    Format settings, QPel       : No
    Format settings, GMC        : No warppoints
    Format settings, Matrix     : Default (MPEG)
    Codec ID                    : XVID
    Codec ID/Hint               : XviD
    Duration                    : 1h 32mn
    Bit rate                    : 987 Kbps
    Width                       : 688 pixels
    Height                      : 368 pixels
    Display aspect ratio        : 1.85:1
    Frame rate                  : 24.000 fps
    Color space                 : YUV
    Chroma subsampling          : 4:2:0
    Bit depth                   : 8 bits
    Scan type                   : Progressive
    Compression mode            : Lossy
    Bits/(Pixel*Frame)          : 0.162
    Stream size                 : 653 MiB (88%)
    Writing library             : XviD 73
    ID                          : 1
    Format                      : MPEG Audio
    Format version              : Version 1
    Format profile              : Layer 3
    Codec ID                    : 55
    Codec ID/Hint               : MP3
    Duration                    : 1h 32mn
    Bit rate mode               : Constant
    Bit rate                    : 128 Kbps
    Channel(s)                  : 2 channels
    Sampling rate               : 48.0 KHz
    Compression mode            : Lossy
    Stream size                 : 84.7 MiB (11%)
    Alignment                   : Aligned on interleaves
    Interleave, duration        : 42 ms (1.00 video frame)
    Interleave, preload duratio : 504 ms
    Writing library             : LAME3.99r
    Encoding settings           : -m s -V 4 -q 2 -lowpass 17 -b 128


    Download .torrent

    Download free and at maximum speed!

    How to Download? · What is a torrent? · Ratings and Limitations

    The site does not extend and does not store electronic(digital) versions of products, and only gives access to a reference catalogue created by users on torrent-files which contain only lists of the hash-sums, the earnest entreaty, with complaints(abuse) to access directly to the user. Files for an exchange on tracker are given by users of a site, and the administration does not bear the responsibility for their maintenance. The request to not fill in the files protected by copyrights, and also files of the illegal maintenance!

    [Profile] [PM]
    Display posts from previous:    
    Reply to topic

    The time now is: Today 15:48

    All times are GMT + 3 Hours

    You cannot post new topics in this forum
    You cannot reply to topics in this forum
    You cannot edit your posts in this forum
    You cannot delete your posts in this forum
    You cannot vote in polls in this forum
    You cannot attach files in this forum
    You cannot download files in this forum