BitTorrentTracker PerecTracker.org
BitTorrentTracker PerecTracker.org
    
Регистрация  ·  Вход
 
 · 
Забыли пароль?

  • Убей своих друзей / Kill Your Friends (Оуэн Харрис / Owen Harris) [2015, США, триллер, комедия, криминал, HDRip] DVO (den904 & DeadSno) + Original Eng

    Ответить на тему
     
    Автор Сообщение

    Light

    Создавать темы 10-Апр-2016 00:09

           

    [Цитировать]

    Убей своих друзей / Kill Your Friends--
    Жанр: триллер, комедия, криминал
    Страна: США
    Год выхода: 2015
    Продолжительность: 01:43:29-Перевод: Любительский (двухголосый) [den904 & DeadSno]
    Оригинальная аудиодорожка: английский
    Cубтитры: нет
    Режиссер: Оуэн Харрис / Owen Harris-В ролях: Николас Холт, Джеймс Корден, Джорджия Кинг, Крэйг Робертс, Джим Пиддок, Джозеф Моул, Дастин Демри-Бёрнс, Дэмиен Молони, Бронсон Уэбб, Элла Смит-Описание: Знакомьтесь, Стивен Стелфокс — менеджер по поиску талантов в звукозаписывающей студии. Наполненный жадностью и тщеславием, Стелфокс весело колесит по всему земному шару в поисках молодых талантов. Но как только хиты заканчиваются и индустрия начинает меняться, Стелфоксу ничего больше не остается, как сыграть по правилам жестокого бизнеса, чтобы добраться к вершинам и спасти свою карьеру…-Дополнительная информация: Релиз без рекламы.-Семпл: http://multi-up.com/1096677
    Качество видео: HDRip
    Формат файла: AVI-Видео: 720x304 (2,35:1), 24,000 fps, XviD 73 ~1614 kbps avg, 0.307 bit/pixel
    Аудио #1: Russian: 48 kHz, AC3, 2 ch, ~192.00 kbps avg
    Аудио #2: English: 48 kHz, AC3, 2 ch, ~192.00 kbps avg-

    MediaInfo

    Общее
    Полное имя : D:\скачано\ZavaLi.DruGanoFF.2015.L2.HDRip.avi
    Формат : AVI
    Формат/Информация : Audio Video Interleave
    Размер файла : 1,45 Гбайт
    Продолжительность : 1 ч. 43 м.
    Общий поток : 2012 Кбит/сек
    Программа кодирования : VirtualDubMod 1.5.10.3 | www.virtualdub-fr.org || (build 2550/release)
    Библиотека кодирования : VirtualDubMod build 2550/release
    Видео
    Идентификатор : 0
    Формат : MPEG-4 Visual
    Профиль формата : Advanced Simple@L5
    Параметр BVOP формата : 1
    Параметр QPel формата : Нет
    Параметр GMC формата : Без точки перехода
    Параметр матрицы формата : Выборочная
    Идентификатор кодека : XVID
    Идентификатор кодека/Подсказка : XviD
    Продолжительность : 1 ч. 43 м.
    Битрейт : 1614 Кбит/сек
    Ширина : 720 пикс.
    Высота : 304 пикс.
    Соотношение сторон : 2,35:1
    Частота кадров : 24,000 кадр/сек
    Цветовое пространство : YUV
    Подвыборка цветности : 4:2:0
    Битовая глубина : 8 бит
    Тип развёртки : Прогрессивная
    Метод сжатия : С потерями
    Бит/(Пиксели*Кадры) : 0.307
    Размер потока : 1,17 Гбайт (80%)
    Библиотека кодирования : XviD 73
    Аудио #1
    Идентификатор : 1
    Формат : AC-3
    Формат/Информация : Audio Coding 3
    Расширение режима : CM (complete main)
    Идентификатор кодека : 2000
    Продолжительность : 1 ч. 43 м.
    Вид битрейта : Постоянный
    Битрейт : 192 Кбит/сек
    Каналы : 2 канала
    Расположение каналов : Front: L R
    Частота : 48,0 КГц
    Битовая глубина : 16 бит
    Метод сжатия : С потерями
    Размер потока : 142 Мбайт (10%)
    Выравнивание : Разделение по промежуткам
    Продолжительность промежутка : 42 мс. (1,00 видеокадр)
    Время предзагрузки промежутка : 500 ms
    Аудио #2
    Идентификатор : 2
    Формат : AC-3
    Формат/Информация : Audio Coding 3
    Расширение режима : CM (complete main)
    Идентификатор кодека : 2000
    Продолжительность : 1 ч. 43 м.
    Вид битрейта : Постоянный
    Битрейт : 192 Кбит/сек
    Каналы : 2 канала
    Расположение каналов : Front: L R
    Частота : 48,0 КГц
    Битовая глубина : 16 бит
    Метод сжатия : С потерями
    Размер потока : 142 Мбайт (10%)
    Выравнивание : Разделение по промежуткам
    Продолжительность промежутка : 42 мс. (1,00 видеокадр)
    Время предзагрузки промежутка : 500 ms

    Скриншот с названием

    Скриншоты

    Скачать .torrent

    Скачать торрент-файл бесплатно и на максимальной скорости!

    Как скачивать? · Что такое торрент? · Рейтинг и ограничения

    !ВНИМАНИЕ!
    Сайт не распространяет и не хранит электронные версии произведений, а занимается лишь лишь предоставлением доступа к создаваемому пользователями каталогу ссылок на торрент-файлы, которые содержат только списки хеш-сумм, убедительная просьба с жалобами обращаться напрямую к пользователю. Файлы для обмена на трекере предоставлены пользователями сайта, и администрация не несёт ответственности за их содержание. Просьба не заливать файлы, защищенные авторскими правами, а также файлы нелегального содержания!


    _________________
    [Профиль] [ЛС]
    Показать сообщения:    
    Ответить на тему

    Текущее время: Сегодня, в 19:53

    Часовой пояс: GMT + 2



    Вы не можете начинать темы
    Вы не можете отвечать на сообщения
    Вы не можете редактировать свои сообщения
    Вы не можете удалять свои сообщения
    Вы не можете голосовать в опросах
    Вы не можете прикреплять файлы к сообщениям
    Вы не можете скачивать файлы