BitTorrentTracker PerecTracker.org
BitTorrentTracker PerecTracker.org
    
Регистрация  ·  Вход
 
 · 
Забыли пароль?

  • (House, Techno, Hip Hop) [CD] VA - Various - Dance Max 6 - 1991, FLAC (image+.cue), lossless

    Ответить на тему
     
    Автор Сообщение

    Columb

    Создавать темы 22-Янв-2014 07:48

           

    [Цитировать]

    Various - Dance Max 6
    Жанр: House, Techno, Hip Hop
    Носитель: CD
    Страна-производитель диска: Germany
    Год издания: 1991
    Издатель (лейбл): EMI Electrola
    Номер по каталогу: 686-798200 2
    Страна: Europe
    Аудиокодек: FLAC (*.flac)
    Тип рипа: image+.cue
    Битрейт аудио: lossless
    Продолжительность: 0:59:50.70+1:01:56.03
    Источник (релизер): Собственный рип
    Наличие сканов в содержимом раздачи: нет
    Треклист:
    1.01 Marky Mark & The Funky Bunch Featuring Loleatta Holloway – Good Vibrations 4:29
    1.02 Cola Boy – 7 Ways To Love (Straight To The Cola Boy Head) 5:08
    1.03 Right Said Fred – I'm Too Sexy 6:23
    1.04 Double Key – After All This Time (Timeless Version) 5:34
    1.05 Sheena Easton – What Comes Naturally (Extended Club Version) 8:04
    1.06 Tina Turner – Nutbush City Limits (Nutbush City 91) 6:00
    1.07 Kraftwerk – Radioactivity (Francois Kevorkian Mix) 7:26
    1.08 Kenny Thomas – Thinking About Your Love (One World Mix) 4:55
    1.09 DNA – Rebel Woman (Phil Harding Remix) 6:02
    1.10 L.A. Style – James Brown Is Dead 5:09
    2.01 Heavy D. & The Boyz – Now That We Found Love (Morales 12" Remix) 8:20
    2.02 ABM Project – Bacardi Feeling 4:56
    2.03 Wood Robbin Featuring Prinzezz – (Everything I Do) I Do It For You 5:22
    2.04 Oliver Cheatham – Put A Little Love In Your Heart (Extended Piano Version) 6:26
    2.05 Homeless – The Girl From Ipanema (Mas Que Nada) (Dancemix) 6:12
    2.06 Bizarre Inc. – Such A Feeling 5:39
    2.07 B.O.S. Featuring Angela Martin – Everybody's Free To Feel Good (Original Amnesia Mix) 6:18
    2.08 Nomad – Something Special (Joey Negro Mix) 7:12
    2.09 Splash – Joy And Pain (Club Mix) 6:31
    2.10 Time To Time – Zeitsprung (Total Techno Version) 4:32

    Лог создания рипа

    Exact Audio Copy V1.0 beta 3 from 29. August 2011
    Отчёт EAC об извлечении, выполненном 19. января 2014, 11:16
    Various Artists / Dance Max 6 (Disc 1)
    Дисковод: Optiarc DVD RW AD-7240S Adapter: 1 ID: 0
    Режим чтения : ДостоверностьИспользование точного потока : ДаОтключение кэша аудио : ДаИспользование указателей C2 : Нет
    Коррекция смещения при чтении : 48Способность читать области Lead-in и Lead-out : НетЗаполнение пропущенных сэмплов тишиной : ДаУдаление блоков с тишиной в начале и конце : НетПри вычислениях CRC использовались нулевые сэмплы : ДаИнтерфейс : Встроенный Win32-интерфейс для Win NT/2000
    Выходной формат : Пользовательский кодировщикВыбранный битрейт : 768 kBit/sКачество : ВысокийДобавление ID3-тега : НетУтилита сжатия : C:\Program Files\Exact Audio Copy\FLAC\FLAC.EXEДополнительные параметры : -V -8 -T "Date=%year%" -T "Genre=%genre%" %source%
    TOC извлечённого CD
    Трек | Старт | Длительность | Начальный сектор | Конечный сектор --------------------------------------------------------------------- 1 | 0:00.00 | 4:33.10 | 0 | 20484 2 | 4:33.10 | 5:12.40 | 20485 | 43924 3 | 9:45.50 | 6:24.20 | 43925 | 72744 4 | 16:09.70 | 5:36.10 | 72745 | 97954 5 | 21:46.05 | 8:07.00 | 97955 | 134479 6 | 29:53.05 | 6:00.28 | 134480 | 161507 7 | 35:53.33 | 7:27.07 | 161508 | 195039 8 | 43:20.40 | 4:51.73 | 195040 | 216937 9 | 48:12.38 | 5:59.60 | 216938 | 243922 10 | 54:12.23 | 5:38.47 | 243923 | 269319
    Характеристики диапазона извлечения и сообщения об ошибках
    Выбранный диапазон
    Имя файла C:\EAC\Various ‎– Dance Max – 6 (EMI Electrola ‎– 686-798200 2)\CD 1\Various Artists - Dance Max 6 (Disc 1).wav
    Пиковый уровень 99.8 % Скорость извлечения 4.1 X Качество диапазона 99.9 % CRC теста A99AA9A9 CRC копии A99AA9A9 Копирование... OK
    Ошибок не произошло
    AccurateRip: сводка
    Трек 1 : извлечено точно (доверие 4) [4D8F1DB3] (AR v2)Трек 2 : извлечено точно (доверие 4) [C4E142C9] (AR v2)Трек 3 : извлечено точно (доверие 4) [5324468E] (AR v2)Трек 4 : извлечено точно (доверие 4) [5B1ECBA5] (AR v2)Трек 5 : извлечено точно (доверие 4) [8C0F9039] (AR v2)Трек 6 : извлечено точно (доверие 4) [C7FBDDD2] (AR v2)Трек 7 : извлечено точно (доверие 4) [CFF6C8AD] (AR v2)Трек 8 : извлечено точно (доверие 4) [59348C80] (AR v2)Трек 9 : извлечено точно (доверие 4) [785D3482] (AR v2)Трек 10 : извлечено точно (доверие 4) [8486097F] (AR v2)
    Все треки извлечены точно
    Конец отчёта
    ==== Контрольная сумма отчёта D80B0C9FAEED3C3EB9169CA29CEAE29A4F272CBB4BEE90E8FC5AB7704A5375C1 ====Exact Audio Copy V1.0 beta 3 from 29. August 2011
    Отчёт EAC об извлечении, выполненном 19. января 2014, 11:56
    Various Artists / Dance Max 6 (Disc 2)
    Дисковод: Optiarc DVD RW AD-7240S Adapter: 1 ID: 0
    Режим чтения : ДостоверностьИспользование точного потока : ДаОтключение кэша аудио : ДаИспользование указателей C2 : Нет
    Коррекция смещения при чтении : 48Способность читать области Lead-in и Lead-out : НетЗаполнение пропущенных сэмплов тишиной : ДаУдаление блоков с тишиной в начале и конце : НетПри вычислениях CRC использовались нулевые сэмплы : ДаИнтерфейс : Встроенный Win32-интерфейс для Win NT/2000
    Выходной формат : Пользовательский кодировщикВыбранный битрейт : 768 kBit/sКачество : ВысокийДобавление ID3-тега : НетУтилита сжатия : C:\Program Files\Exact Audio Copy\FLAC\FLAC.EXEДополнительные параметры : -V -8 -T "Date=%year%" -T "Genre=%genre%" %source%
    TOC извлечённого CD
    Трек | Старт | Длительность | Начальный сектор | Конечный сектор --------------------------------------------------------------------- 1 | 0:00.00 | 8:23.15 | 0 | 37739 2 | 8:23.15 | 5:01.05 | 37740 | 60319 3 | 13:24.20 | 5:25.18 | 60320 | 84712 4 | 18:49.38 | 6:27.35 | 84713 | 113772 5 | 25:16.73 | 6:13.47 | 113773 | 141794 6 | 31:30.45 | 5:42.20 | 141795 | 167464 7 | 37:12.65 | 6:20.20 | 167465 | 195984 8 | 43:33.10 | 7:12.03 | 195985 | 228387 9 | 50:45.13 | 6:34.25 | 228388 | 257962 10 | 57:19.38 | 4:36.40 | 257963 | 278702
    Характеристики диапазона извлечения и сообщения об ошибках
    Выбранный диапазон
    Имя файла C:\EAC\Various ‎– Dance Max – 6 (EMI Electrola ‎– 686-798200 2)\CD 2\Various Artists - Dance Max 6 (Disc 2).wav
    Пиковый уровень 95.8 % Скорость извлечения 4.2 X Качество диапазона 100.0 % CRC теста 1F8372ED CRC копии 1F8372ED Копирование... OK
    Ошибок не произошло
    AccurateRip: сводка
    Трек 1 : извлечено точно (доверие 5) [4EC8977D] (AR v2)Трек 2 : извлечено точно (доверие 5) [DE113E7E] (AR v2)Трек 3 : извлечено точно (доверие 5) [F5EDED99] (AR v2)Трек 4 : извлечено точно (доверие 5) [C17D00F9] (AR v2)Трек 5 : извлечено точно (доверие 5) [1B9CC6A4] (AR v2)Трек 6 : извлечено точно (доверие 5) [872AF414] (AR v2)Трек 7 : извлечено точно (доверие 4) [D2D7B738] (AR v2)Трек 8 : извлечено точно (доверие 4) [0B7DBDD8] (AR v2)Трек 9 : извлечено точно (доверие 4) [D471F616] (AR v2)Трек 10 : извлечено точно (доверие 4) [7A0738ED] (AR v2)
    Все треки извлечены точно
    Конец отчёта
    ==== Контрольная сумма отчёта C931273980FCC7ECD9B906E3D6D6D54B8833A1AF56B8B3EBB38CD9B46DE5B4F7 ====

    Скриншот спектра частот


    Скачать .torrent

    Скачать торрент-файл бесплатно и на максимальной скорости!

    Как скачивать? · Что такое торрент? · Рейтинг и ограничения

    !ВНИМАНИЕ!
    Сайт не распространяет и не хранит электронные версии произведений, а занимается лишь лишь предоставлением доступа к создаваемому пользователями каталогу ссылок на торрент-файлы, которые содержат только списки хеш-сумм, убедительная просьба с жалобами обращаться напрямую к пользователю. Файлы для обмена на трекере предоставлены пользователями сайта, и администрация не несёт ответственности за их содержание. Просьба не заливать файлы, защищенные авторскими правами, а также файлы нелегального содержания!

    [Профиль] [ЛС]
    Показать сообщения:    
    Ответить на тему

    Текущее время: Сегодня, в 05:19

    Часовой пояс: GMT + 2



    Вы не можете начинать темы
    Вы не можете отвечать на сообщения
    Вы не можете редактировать свои сообщения
    Вы не можете удалять свои сообщения
    Вы не можете голосовать в опросах
    Вы не можете прикреплять файлы к сообщениям
    Вы не можете скачивать файлы