BitTorrentTracker PerecTracker.org
BitTorrentTracker PerecTracker.org
    
Регистрация  ·  Вход
 
 · 
Забыли пароль?

  • Сотня / The 100 / Сезон: 2 / Серии: 1-16 из 16 (Дин Уайт, Майрзи Алмас, Мэтт Барбер) [2014, Фантастика, драма, WEB-DLRip] MVO (LostFilm) + Original

    Ответить на тему
     
    Автор Сообщение

    rechyn

    Создавать темы 09-Апр-2016 21:01

           

    [Цитировать]

    Сотня / The 100-Год выпуска: 2014
    Страна: США
    Жанр: Фантастика, драма
    Продолжительность: 00:42:00
    Перевод: Профессиональный (многоголосый закадровый) | LostFilm-Режиссёр: Дин Уайт, Майрзи Алмас, Мэтт Барбер
    В ролях: Элайза Тейлор, Мари Авгеропулос, Боб Морли, Томас МакДонелл, Линдси Морган, Пейдж Турко, Генри Йен Кьюсик, Исайя Вашингтон, Девон Бостик, Кристофер Ларкин и др.-Описание: События в сериале начинают разворачиваться по прошествии девяносто семи лет после того как всю цивилизацию уничтожила страшная атомная война. Высоко в космосе на орбите Земли летает большой космический корабль, именно здесь находятся те, кто выжил после страшной катастрофы. Они единственные кто пережил этот ужасный катаклизм который устроило человечество. Именно с этого последнего пристанища людей на Землю отправляют космический челнок на котором находятся сто малолетних преступников…-Релиз от OlOuHbKa-Сэмпл: http://multi-up.com/1050557
    Качество: WEB-DLRip
    Формат: AVI
    Видео: XVID, 720x400 (16:9), 23.976 fps, ~1412 kbps avg, 0.204 bit/pixel
    Аудио Rus: MP3, 48 kHz, 2 channels, 192 kbps avg
    Аудио Eng: MP3, 48 kHz, 2 channels, 192 kbps avg
    Субтитры: отсутствуют

    MediaInfo

    General
    Complete name : E:\Сотня (Сезон 2) LostFilm\The.100.S02E01.WEB-DL.Rus.Eng.LostFilm.avi
    Format : AVI
    Format/Info : Audio Video Interleave
    File size : 551 MiB
    Duration : 42mn 32s
    Overall bit rate : 1 810 Kbps
    Writing application : VirtualDubMod 1.5.10.3 (build 2550/release)
    Writing library : VirtualDubMod build 2550/release

    Video
    ID : 0
    Format : MPEG-4 Visual
    Format profile : Advanced Simple@L5
    Format settings, BVOP : 1
    Format settings, QPel : No
    Format settings, GMC : No warppoints
    Format settings, Matrix : Default (H.263)
    Codec ID : XVID
    Codec ID/Hint : XviD
    Duration : 42mn 32s
    Bit rate : 1 412 Kbps
    Width : 720 pixels
    Height : 400 pixels
    Display aspect ratio : 16:9
    Frame rate : 23.976 fps
    Color space : YUV
    Chroma subsampling : 4:2:0
    Bit depth : 8 bits
    Scan type : Progressive
    Compression mode : Lossy
    Bits/(Pixel*Frame) : 0.204
    Stream size : 430 MiB (78%)
    Writing library : XviD 1.2.1 (UTC 2008-12-04)

    Audio #1
    ID : 1
    Format : MPEG Audio
    Format version : Version 1
    Format profile : Layer 3
    Codec ID : 55
    Codec ID/Hint : MP3
    Duration : 42mn 32s
    Bit rate mode : Constant
    Bit rate : 192 Kbps
    Channel count : 2 channels
    Sampling rate : 48.0 KHz
    Compression mode : Lossy
    Stream size : 58.4 MiB (11%)
    Alignment : Aligned on interleaves
    Interleave, duration : 42 ms (1.00 video frame)
    Interleave, preload duration : 504 ms
    Writing library : LAME3.99r
    Encoding settings : -m s -V 4 -q 0 -lowpass 18.6 -b 192

    Audio #2
    ID : 2
    Format : MPEG Audio
    Format version : Version 1
    Format profile : Layer 3
    Codec ID : 55
    Codec ID/Hint : MP3
    Duration : 42mn 32s
    Bit rate mode : Constant
    Bit rate : 192 Kbps
    Channel count : 2 channels
    Sampling rate : 48.0 KHz
    Compression mode : Lossy
    Stream size : 58.4 MiB (11%)
    Alignment : Aligned on interleaves
    Interleave, duration : 42 ms (1.00 video frame)
    Interleave, preload duration : 504 ms
    Writing library : LAME3.99r
    Encoding settings : -m s -V 4 -q 0 -lowpass 18.6 -b 192

    Скриншоты

    -

    Ссылка на предыдущие и альтернативные раздачи

    http://perectracker.org/http://perectracker.org/tracker.php?f=42&nm=The+100+-29+-Code
    -
    Скачать .torrent

    Скачать торрент-файл бесплатно и на максимальной скорости!

    Как скачивать? · Что такое торрент? · Рейтинг и ограничения

    !ВНИМАНИЕ!
    Сайт не распространяет и не хранит электронные версии произведений, а занимается лишь лишь предоставлением доступа к создаваемому пользователями каталогу ссылок на торрент-файлы, которые содержат только списки хеш-сумм, убедительная просьба с жалобами обращаться напрямую к пользователю. Файлы для обмена на трекере предоставлены пользователями сайта, и администрация не несёт ответственности за их содержание. Просьба не заливать файлы, защищенные авторскими правами, а также файлы нелегального содержания!


    _________________
    [Профиль] [ЛС]
    Показать сообщения:    
    Ответить на тему

    Текущее время: Сегодня, в 16:23

    Часовой пояс: GMT + 2



    Вы не можете начинать темы
    Вы не можете отвечать на сообщения
    Вы не можете редактировать свои сообщения
    Вы не можете удалять свои сообщения
    Вы не можете голосовать в опросах
    Вы не можете прикреплять файлы к сообщениям
    Вы не можете скачивать файлы