BitTorrentTracker PerecTracker.org
BitTorrentTracker PerecTracker.org
    
Регистрация  ·  Вход
 
 · 
Забыли пароль?

  • Парфюмерша / Серии: 1-8 из 8 (Игорь Ройзман) [2013, мелодрама, HDTV (1080i)]

    Ответить на тему
     
    Автор Сообщение

    rechyn

    Создавать темы 09-Апр-2016 20:37

           

    [Цитировать]

    Парфюмерша--Год выпуска: 2013
    Производство: "Марс Медиа Энтертейнмент"
    Жанр: мелодрама
    Продолжительность: 00:45:00
    Субтитры: нет-Режиссёр: Игорь Ройзман-В ролях:
    Мария Куликова, Наталья Рогожкина, Семён Шкаликов, Николай Быстров, Елена Санаева, Анатолий Голуб, Татьяна Чердынцева-Описание:
    На должность директора провинциальной парфюмерной фабрики претендуют двое.
    Наталья — главный технолог, мечтающий о возрождении предприятия и создании новой коллекции духов, и Илья — молодой,
    амбициозный столичный специалист, который хочет построить на месте фабрики гипермаркет.
    Но неожиданно для обоих соперничество уступает место другому чувству. Благодаря Наташе Илья научится доверять не только разуму.
    Благодаря Илье Наталья поверит в себя и создаст свой лучший парфюм, в котором будут безумие страсти и горечь расставания.
    «Дурнопьян» станет мелодией их любви, в которой есть магия верхней ноты.-Все раздачи сериала-Возраст: 12+-Качество: HDTV (1080i)
    Формат: TS
    Видео кодек: AVC
    Аудио кодек: AC3, MP2

    Видео: AVC, 1920 х 1080 (16:9), 25,000 кадр/сек, 7 881 Кбит/сек, 0.152 bit/pixel
    Аудио 1: AC3, 48000 Hz, 384 Kbps, 6 каналов
    Аудио 2: MP2, 48000 Hz, 192 Kbps, 2 канала
    -

    MediaInfo

    General
    ID : 1 (0x1)
    Complete name : D:\Раздачи\Парфюмерша (1-8 серии из 8) HDTV (1080i)\Parfjumersha.02.2013.HDTV.1080i.ts
    Format : MPEG-TS
    File size : 5.53 GiB
    Duration : 1h 28mn
    Overall bit rate mode : Variable
    Overall bit rate : 8 902 Kbps
    Video
    ID : 2931 (0xB73)
    Menu ID : 1115 (0x45B)
    Format : AVC
    Format/Info : Advanced Video Codec
    Format profile : High@L4
    Format settings, CABAC : Yes
    Format settings, ReFrames : 4 frames
    Codec ID : 27
    Duration : 1h 28mn
    Bit rate : 7 881 Kbps
    Width : 1 920 pixels
    Height : 1 080 pixels
    Display aspect ratio : 16:9
    Frame rate : 25.000 fps
    Color space : YUV
    Chroma subsampling : 4:2:0
    Bit depth : 8 bits
    Scan type : MBAFF
    Scan type, store method : Interleaved fields
    Scan order : Top Field First
    Bits/(Pixel*Frame) : 0.152
    Stream size : 4.90 GiB (89%)
    Audio #1
    ID : 211 (0xD3)
    Menu ID : 1115 (0x45B)
    Format : AC-3
    Format/Info : Audio Coding 3
    Mode extension : CM (complete main)
    Format settings, Endianness : Big
    Codec ID : 6
    Duration : 1h 28mn
    Bit rate mode : Constant
    Bit rate : 384 Kbps
    Channel(s) : 6 channels
    Channel positions : Front: L C R, Side: L R, LFE
    Sampling rate : 48.0 KHz
    Frame rate : 31.250 fps (1536 spf)
    Compression mode : Lossy
    Stream size : 244 MiB (4%)
    Language : Russian
    Audio #2
    ID : 2932 (0xB74)
    Menu ID : 1115 (0x45B)
    Format : MPEG Audio
    Format version : Version 1
    Format profile : Layer 2
    Mode : Joint stereo
    Mode extension : Intensity Stereo + MS Stereo
    Codec ID : 3
    Duration : 1h 28mn
    Bit rate mode : Constant
    Bit rate : 192 Kbps
    Channel(s) : 2 channels
    Sampling rate : 48.0 KHz
    Compression mode : Lossy
    Stream size : 122 MiB (2%)
    Language : Russian
    -

    Скриншоты сериала


    --
    Скачать .torrent

    Скачать торрент-файл бесплатно и на максимальной скорости!

    Как скачивать? · Что такое торрент? · Рейтинг и ограничения

    !ВНИМАНИЕ!
    Сайт не распространяет и не хранит электронные версии произведений, а занимается лишь лишь предоставлением доступа к создаваемому пользователями каталогу ссылок на торрент-файлы, которые содержат только списки хеш-сумм, убедительная просьба с жалобами обращаться напрямую к пользователю. Файлы для обмена на трекере предоставлены пользователями сайта, и администрация не несёт ответственности за их содержание. Просьба не заливать файлы, защищенные авторскими правами, а также файлы нелегального содержания!


    _________________
    [Профиль] [ЛС]
    Показать сообщения:    
    Ответить на тему

    Текущее время: Сегодня, в 22:10

    Часовой пояс: GMT + 2



    Вы не можете начинать темы
    Вы не можете отвечать на сообщения
    Вы не можете редактировать свои сообщения
    Вы не можете удалять свои сообщения
    Вы не можете голосовать в опросах
    Вы не можете прикреплять файлы к сообщениям
    Вы не можете скачивать файлы