BitTorrentTracker PerecTracker.org
BitTorrentTracker PerecTracker.org
    
Регистрация  ·  Вход
 
 · 
Забыли пароль?

  • Спасите наши души / Сезон: 1 / Серии: 1-8 из 8 (Кирилл Белевич) [2008, Драма, военный, DVDRip]

    Ответить на тему
     
    Автор Сообщение

    vlad

    Создавать темы 09-Апр-2016 20:35

           

    [Цитировать]

    Спасите наши душиГод выпуска: 2008
    Производство: Россия, Украина, "Star Media"
    Жанр: Драма, военный
    Продолжительность: 8 x ~ 00:50:00
    Субтитры: Нет
    Режиссёр: Кирилл Белевич
    В ролях: Екатерина Гусева, Михаил Мартьянов, Сергей Колтаков, Юрий Цурило, Александр Коршунов, Никита Астахов, Илья Рутберг, Ян Цапник, Кирилл Белевич, Александр Карпов (III), Андрей Фролов, Александр Вершинин, Тамара Обутова, Владимир Кабалин, Александр Замураев, Константин Шавкунов, Андрей Неустроев, Олег Гетце, Юрий Сысоев, Константин Итунин, Никита Тарасов, Раис Галямов, Юрий Сирман, Сергей Фёдоров (II), Андрей Дымшаков, Виктор Курочкин (II), Дмитрий Колмагоров, Мария Варламова
    Описание: 1942 год. Великая Отечественная Война. Самый тяжёлый, переломный период для нашей страны. Действие разворачивается в северном порту на полуострове Таймыр, рядом с которым должен пройти конвой наших американских союзников с помощью. На борту кораблей: продукты, одежда, оружие… Здесь же и промежуточная база для транспортировки заключённых на фосфоритные рудники.
    Холод, голод, злость, жизнь по законам «сильнейшего» иногда не оставляют человеку никаких шансов… По агентурным данным в Москву поступили сведения, что в порту среди «своих» появился немецкий резидент, который руководит немецкими подводными лодками…
    Прибывший из Москвы старший лейтенант НКВД Кроткий расследует серию непонятных смертей, он почти догоняет убийцу, но в последний момент человек в плаще мистическим образом уходит от погони… Времени катастрофически не хватает… Шторм… Конвой вышел в заданный квадрат… С глубины моря поднимается перископ немецкой подводной лодки…

    Все раздачи сериала
    Сэмпл:
    Качество: DVDRip
    Формат: AVI
    Видео кодек: XviD
    Аудио кодек: AC3
    Видео: XviD build 47, 720x400 (1.80:1), 25 fps, ~1450 kbps avg, 0.23 bit/pixel
    Аудио: AC3 Dolby Digital, 48 kHz, 3/2 (L,C,R,l,r) + LFE ch, 384 kbps
    Сторонней рекламы НЕТ !!!

    MI

    General
    Complete name : F:\ФИЛЬМЫ РОССИЯ\Spasite.nashi.dushi.2008.XviD.DVDRip\Spasite.nashi.dushi.(2.serija.iz.8).2008.XviD.DVDRip.avi
    Format : AVI
    Format/Info : Audio Video Interleave
    File size : 697 MiB
    Duration : 52mn 14s
    Overall bit rate : 1 864 Kbps
    Writing application : VirtualDubMod 1.5.10.2 (build 2540/release)
    Writing library : VirtualDub build 30091/release
    Video
    ID : 0
    Format : MPEG-4 Visual
    Format profile : Advanced Simple@L5
    Format settings, BVOP : 1
    Format settings, QPel : No
    Format settings, GMC : No warppoints
    Format settings, Matrix : Default (H.263)
    Codec ID : XVID
    Codec ID/Hint : XviD
    Duration : 52mn 14s
    Bit rate : 1 470 Kbps
    Width : 720 pixels
    Height : 400 pixels
    Display aspect ratio : 16:9
    Frame rate : 25.000 fps
    Color space : YUV
    Chroma subsampling : 4:2:0
    Bit depth : 8 bits
    Scan type : Progressive
    Compression mode : Lossy
    Bits/(Pixel*Frame) : 0.204
    Stream size : 549 MiB (79%)
    Writing library : XviD 1.2.0.dev47 (UTC 2006-11-01)
    Audio
    ID : 1
    Format : AC-3
    Format/Info : Audio Coding 3
    Mode extension : CM (complete main)
    Format settings, Endianness : Big
    Codec ID : 2000
    Duration : 52mn 14s
    Bit rate mode : Constant
    Bit rate : 384 Kbps
    Channel(s) : 6 channels
    Channel positions : Front: L C R, Side: L R, LFE
    Sampling rate : 48.0 KHz
    Frame rate : 31.250 fps (1536 spf)
    Compression mode : Lossy
    Delay relative to video : 16ms
    Stream size : 143 MiB (21%)
    Alignment : Split accross interleaves
    Interleave, duration : 40 ms (1.00 video frame)
    Interleave, preload duratio : 500 ms

    Скриншоты

    Скачать .torrent

    Скачать торрент-файл бесплатно и на максимальной скорости!

    Как скачивать? · Что такое торрент? · Рейтинг и ограничения

    !ВНИМАНИЕ!
    Сайт не распространяет и не хранит электронные версии произведений, а занимается лишь лишь предоставлением доступа к создаваемому пользователями каталогу ссылок на торрент-файлы, которые содержат только списки хеш-сумм, убедительная просьба с жалобами обращаться напрямую к пользователю. Файлы для обмена на трекере предоставлены пользователями сайта, и администрация не несёт ответственности за их содержание. Просьба не заливать файлы, защищенные авторскими правами, а также файлы нелегального содержания!


    _________________
    [Профиль] [ЛС]
    Показать сообщения:    
    Ответить на тему

    Текущее время: Сегодня, в 12:36

    Часовой пояс: GMT + 2



    Вы не можете начинать темы
    Вы не можете отвечать на сообщения
    Вы не можете редактировать свои сообщения
    Вы не можете удалять свои сообщения
    Вы не можете голосовать в опросах
    Вы не можете прикреплять файлы к сообщениям
    Вы не можете скачивать файлы