BitTorrentTracker PerecTracker.org
BitTorrentTracker PerecTracker.org
    
Регистрация  ·  Вход
 
 · 
Забыли пароль?

  • Чудны дела твои, Господи! / Серии: 1 - 4 (4) (Петр Амелин) [2016, детектив, экранизация, SATRip]

    Ответить на тему
     
    Автор Сообщение

    rechyn

    Создавать темы 09-Апр-2016 20:32

           

    [Цитировать]

    Чудны дела твои, Господи!
    Год выпуска: 2016
    Производство: Россия, ООО "Свэлл Фильм"
    Жанр: детектив,экранизация
    Продолжительность: 00:43:00
    Субтитры: нет
    Режиссёр: Петр Амелин
    В ролях: Алексей Зубков, Эмилия Спивак, Сергей Шарифуллин, Ингрид Олеринская, Ольга Самошина, Дмитрий Сутырин, Елизавета Александрова, Дмитрий Быковский-Ромашов, Анна Донченко, Надежда Некрасова (II), Иван Бровин, Сергей Шкарбан, Андрей Павловец, Олег Петров (V), Валентина Нейморовец
    Описание: Как только Андрей Ильич Боголюбов, по просьбе самого министра, вступает в должность директора музея в небольшом провинциальном городке, вокруг него начинают твориться странные дела. Бывшая директриса внезапно умирает прямо у него на глазах, ему прокалывают колеса, подбрасывают записки с угрозами, подозревают в попытках закрыть музей и даже пытаются убить! Становится очевидно: в музее происходит нечто необъяснимое. Боголюбову приходится взяться за расследование. А заодно разобраться в чувствах к бывшей жене, которая неожиданно и совсем некстати появляется на пороге его дома…
    Все раздачи сериала:
    Сэмпл:
    Качество: SATRip
    Формат: AVI
    Видео кодек: XviD
    Аудио кодек: AC3
    Видео: XVID; 1649 Кбит/сек; 720х400 (16:9); 25,000 кадров/сек; Бит/(Пиксели*Кадры) : 0.229
    Аудио: AC-3; 192 Кбит/сек; 2 канала; 48,0 КГц

    MI

    Общее
    Полное имя : E:\закачки\Чудны дела твои, Господи [rutracker.org]\Чудны дела твои, Господи 01.avi
    Формат : AVI
    Формат/Информация : Audio Video Interleave
    Размер файла : 580 Мбайт
    Продолжительность : 43 м.
    Общий поток : 1851 Кбит/сек
    Программа кодирования : VirtualDubMod 1.5.10.2 (build 2540/release)
    Библиотека кодирования : VirtualDubMod build 2540/release
    Видео
    Идентификатор : 0
    Формат : MPEG-4 Visual
    Профиль формата : Advanced Simple@L5
    Параметр BVOP формата : 1
    Параметр QPel формата : Нет
    Параметр GMC формата : Без точки перехода
    Параметр матрицы формата : Default (H.263)
    Идентификатор кодека : XVID
    Идентификатор кодека/Подсказка : XviD
    Продолжительность : 43 м.
    Битрейт : 1649 Кбит/сек
    Ширина : 720 пикселей
    Высота : 400 пикселей
    Соотношение сторон : 16:9
    Частота кадров : 25,000 кадров/сек
    Цветовое пространство : YUV
    Субдискретизация насыщенности : 4:2:0
    Битовая глубина : 8 бит
    Тип развёртки : Прогрессивная
    Метод сжатия : С потерями
    Бит/(Пиксели*Кадры) : 0.229
    Размер потока : 517 Мбайт (89%)
    Библиотека кодирования : XviD 1.2.1 (UTC 2008-12-04)
    Аудио
    Идентификатор : 1
    Формат : AC-3
    Формат/Информация : Audio Coding 3
    Расширение режима : CM (complete main)
    Параметр Endianness формата : Big
    Идентификатор кодека : 2000
    Продолжительность : 43 м.
    Вид битрейта : Постоянный
    Битрейт : 192 Кбит/сек
    Каналы : 2 канала
    Расположение каналов : Front: L R
    Частота : 48,0 КГц
    Битовая глубина : 16 бит
    Метод сжатия : С потерями
    Размер потока : 60,2 Мбайт (10%)
    Выравнивание : Соединение по промежуткам
    Продолжительность промежутка : 40 мс. (1,00 видеокадр)
    Время предзагрузки промежутка : 512 мс.

    Скриншоты

    Релиз Сме_ша_рик
    Скачать .torrent

    Скачать торрент-файл бесплатно и на максимальной скорости!

    Как скачивать? · Что такое торрент? · Рейтинг и ограничения

    !ВНИМАНИЕ!
    Сайт не распространяет и не хранит электронные версии произведений, а занимается лишь лишь предоставлением доступа к создаваемому пользователями каталогу ссылок на торрент-файлы, которые содержат только списки хеш-сумм, убедительная просьба с жалобами обращаться напрямую к пользователю. Файлы для обмена на трекере предоставлены пользователями сайта, и администрация не несёт ответственности за их содержание. Просьба не заливать файлы, защищенные авторскими правами, а также файлы нелегального содержания!


    _________________
    [Профиль] [ЛС]
    Показать сообщения:    
    Ответить на тему

    Текущее время: Сегодня, в 22:46

    Часовой пояс: GMT + 2



    Вы не можете начинать темы
    Вы не можете отвечать на сообщения
    Вы не можете редактировать свои сообщения
    Вы не можете удалять свои сообщения
    Вы не можете голосовать в опросах
    Вы не можете прикреплять файлы к сообщениям
    Вы не можете скачивать файлы