BitTorrentTracker PerecTracker.org
BitTorrentTracker PerecTracker.org
    
Регистрация  ·  Вход
 
 · 
Забыли пароль?

  • Второе восстание Спартака / Сезон: 1 / Серии: 1-8 из 8 (Василий Пичул) [2013, Военный, драма, приключения, SATRip]

    Ответить на тему
     
    Автор Сообщение

    rechyn

    Создавать темы 09-Апр-2016 20:29

           

    [Цитировать]

    Второе восстание СпартакаГод выпуска: 2013
    Производство: Россия, Централ Партнершип, 2-Б-2
    Жанр: Военный, драма, приключения
    Продолжительность: 8 x ~ 00:48:00
    Субтитры: Нет
    Режиссёр: Василий Пичул
    В ролях: Константин Крюков, Татьяна Арнтгольц, Кирилл Плетнёв, Александр Лойе, Виктор Раков, Галина Польских, Александр Семчев, Александра Урсуляк, Даниил Спиваковский, Виктор Проскурин, Сергей Варчук, Роман Радов, Нияз Гаджиев, Алексей Солончев, Денис Липатов, Дмитрий Буренков, Алексей Эйбоженко мл., Виталий Абдулов, Александр Орав, Антон Ескин, Александр Поляк, Денис Константинов, Андрей Межулис, Оксана Гуляева, Александр Горелов (II), Екатерина Федотова (II), Максим Костромыкин, Дмитрий Кошелев, Максим Дромашкоа Радчук, Ярослав Белый, Виталий Герасимов, Юлия Морозова, Александр Мякушко
    Описание: По одноименному роману Александра Бушкова и Андрея Константинова. Спартак Котляревский был русским летчиком, бомбившим Берлин в августе 1941-го. Но вместо Звезды Героя он получил тюремный срок. И теперь у Спартака, как у его тезки, римского гладиатора, две тысячи лет назад, остался единственный выход – восстание. Котляревский организует самый крупный бунт заключенных за всю историю советского режима. Наперекор судьбе Спартак вырывается на волю, чтобы вернуться к любимой.
    Доп. информация:

    Все раздачи сериала
    Сэмпл:
    Качество: SATRip
    Формат: AVI
    Видео кодек: XviD
    Аудио кодек: AC3
    Видео: XviD build 73, 720x400 (1.80:1), 25 fps, 1577 kbps avg, 0.22 bit/pixel
    Аудио: AC3 Dolby Digital, 48 kHz, 2/0 (L,R) ch, 192 kbps
    Сторонней рекламы НЕТ !!!

    MI

    General
    Complete name : F:\ФИЛЬМЫ РОССИЯ\Vtoroe.vosstanie.Spartaka.2013.SATRip.Vtoroe.vosstanie.Spartaka.2013.SATRip..avi
    Format : AVI
    Format/Info : Audio Video Interleave
    File size : 600 MiB
    Duration : 47mn 9s
    Overall bit rate : 1 780 Kbps
    Writing application : VirtualDubMod 1.5.10.3 | www.virtualdub-fr.org || (build 2550/release)
    Writing library : VirtualDubMod build 2550/release
    Video
    ID : 0
    Format : MPEG-4 Visual
    Format profile : Advanced Simple@L5
    Format settings, BVOP : 1
    Format settings, QPel : No
    Format settings, GMC : No warppoints
    Format settings, Matrix : Custom
    Codec ID : XVID
    Codec ID/Hint : XviD
    Duration : 47mn 9s
    Bit rate : 1 578 Kbps
    Width : 720 pixels
    Height : 400 pixels
    Display aspect ratio : 16:9
    Frame rate : 25.000 fps
    Color space : YUV
    Chroma subsampling : 4:2:0
    Bit depth : 8 bits
    Scan type : Progressive
    Compression mode : Lossy
    Bits/(Pixel*Frame) : 0.219
    Stream size : 532 MiB (89%)
    Writing library : XviD 73
    Audio
    ID : 1
    Format : AC-3
    Format/Info : Audio Coding 3
    Mode extension : CM (complete main)
    Format settings, Endianness : Big
    Codec ID : 2000
    Duration : 47mn 9s
    Bit rate mode : Constant
    Bit rate : 192 Kbps
    Channel(s) : 2 channels
    Channel positions : Front: L R
    Sampling rate : 48.0 KHz
    Frame rate : 31.250 fps (1536 spf)
    Compression mode : Lossy
    Stream size : 64.8 MiB (11%)
    Alignment : Split accross interleaves
    Interleave, duration : 40 ms (1.00 video frame)
    Interleave, preload duratio : 500 ms

    Скриншоты

    Скачать .torrent

    Скачать торрент-файл бесплатно и на максимальной скорости!

    Как скачивать? · Что такое торрент? · Рейтинг и ограничения

    !ВНИМАНИЕ!
    Сайт не распространяет и не хранит электронные версии произведений, а занимается лишь лишь предоставлением доступа к создаваемому пользователями каталогу ссылок на торрент-файлы, которые содержат только списки хеш-сумм, убедительная просьба с жалобами обращаться напрямую к пользователю. Файлы для обмена на трекере предоставлены пользователями сайта, и администрация не несёт ответственности за их содержание. Просьба не заливать файлы, защищенные авторскими правами, а также файлы нелегального содержания!


    _________________
    [Профиль] [ЛС]
    Показать сообщения:    
    Ответить на тему

    Текущее время: Сегодня, в 21:30

    Часовой пояс: GMT + 2



    Вы не можете начинать темы
    Вы не можете отвечать на сообщения
    Вы не можете редактировать свои сообщения
    Вы не можете удалять свои сообщения
    Вы не можете голосовать в опросах
    Вы не можете прикреплять файлы к сообщениям
    Вы не можете скачивать файлы