BitTorrentTracker PerecTracker.org
BitTorrentTracker PerecTracker.org
    
Регистрация  ·  Вход
 
 · 
Забыли пароль?

  • День радио (Дмитрий Дьяченко) [2008, Россия, комедия, HDRip]

    Ответить на тему
     
    Автор Сообщение

    Flirldrerve

    Создавать темы 08-Апр-2016 14:01

           

    [Цитировать]

    День радио
    Страна: Россия
    Жанр: комедия
    Год выпуска: 2008
    Продолжительность: 01:43:02--Режиссер: Дмитрий Дьяченко--В ролях: Леонид Барац, Александр Демидов, Камиль Ларин, Ростислав Хаит, Михаил Козырев, Нонна Гришаева, Дмитрий Марьянов, Николай Фоменко, Максим Виторган, Анна Касаткина-Барац, Михаил Полицеймако, Анастасия Сапожникова, Фёдор Добронравов, Алексей Хардиков, Михаил Бескоровайный, Константин Чепурин, Эммануил Виторган, Георгий Мартиросян, Сергей Беляев, Владимир Шахрин, Владимир Бегунов, Алексей Кортнев, Илья Лагутенко, Олег Скрипка, Диана Арбенина, Максим Покровский, Ольга Кузина, Сергей Мазаев, Сергей Бабкин, Игорь Гоцманов, Амалия Мордвинова--Описание: Один день из жизни модной московской радиостанции. Не самый лучший день — рушатся все планы, все валится из рук… И именно в тот момент, когда на станции в прямом эфире вот-вот должен начаться «живой» марафон, а популярные российские рок-группы придут в эфир, чтобы поддержать… впрочем, это уже неважно, потому что тема марафона перехвачена конкурентами и активно обсуждается в эфире «вражеской» радиостанции. Но марафон отменять нельзя!
    Рабочий день обещает стать последним для всего творческого состава, если срочно не найдется новая тема. А тем временем из Находки вышел маленький катер с лучшими представителями Благовещенского областного цирка — медведь, обезьяна, два пуделя, петух, козел, кабан, которые плывут на гастроли в Японию. И если бы кто-то из команды катера не слил налево полбака солярки, а еще кто-то — еще полбака, то они бы, возможно, даже и доплыли бы.--Доп. информация: Kinopoisk | Sample |--Качество: HDRip
    Формат: AVI
    Видео: 624x336 (1.86:1), 23.976 fps, XviD build 73 ~875 kbps
    Аудио: 48 kHz, MPEG Layer 3, 2 ch, ~128.00 kbps avg

    MediaInfo

    General
    Complete name : День радио.2008.avi
    Format : AVI
    Format/Info : Audio Video Interleave
    File size : 747 MiB
    Duration : 1h 43mn
    Overall bit rate : 1 013 Kbps
    Writing application : VirtualDubMod 1.5.10.3 | www.virtualdub-fr.org || (build 2550/release)
    Writing library : VirtualDubMod build 2550/release
    Video
    ID : 0
    Format : MPEG-4 Visual
    Format profile : Advanced Simple@L5
    Format settings, BVOP : 1
    Format settings, QPel : No
    Format settings, GMC : No warppoints
    Format settings, Matrix : Custom
    Codec ID : XVID
    Codec ID/Hint : XviD
    Duration : 1h 43mn
    Bit rate : 876 Kbps
    Width : 624 pixels
    Height : 336 pixels
    Display aspect ratio : 1.85:1
    Frame rate : 23.976 (23976/1000) fps
    Color space : YUV
    Chroma subsampling : 4:2:0
    Bit depth : 8 bits
    Scan type : Progressive
    Compression mode : Lossy
    Bits/(Pixel*Frame) : 0.174
    Stream size : 646 MiB (86%)
    Writing library : XviD 73
    Audio
    ID : 1
    Format : MPEG Audio
    Format version : Version 1
    Format profile : Layer 3
    Codec ID : 55
    Codec ID/Hint : MP3
    Duration : 1h 43mn
    Bit rate mode : Constant
    Bit rate : 128 Kbps
    Channel(s) : 2 channels
    Sampling rate : 48.0 KHz
    Compression mode : Lossy
    Stream size : 94.3 MiB (13%)
    Alignment : Aligned on interleaves
    Interleave, duration : 42 ms (1.00 video frame)
    Interleave, preload duratio : 504 ms
    Writing library : LAME3.99r
    Encoding settings : -m s -V 4 -q 2 -lowpass 17 -b 128

    Скриншоты

    Скачать .torrent

    Скачать торрент-файл бесплатно и на максимальной скорости!

    Как скачивать? · Что такое торрент? · Рейтинг и ограничения

    !ВНИМАНИЕ!
    Сайт не распространяет и не хранит электронные версии произведений, а занимается лишь лишь предоставлением доступа к создаваемому пользователями каталогу ссылок на торрент-файлы, которые содержат только списки хеш-сумм, убедительная просьба с жалобами обращаться напрямую к пользователю. Файлы для обмена на трекере предоставлены пользователями сайта, и администрация не несёт ответственности за их содержание. Просьба не заливать файлы, защищенные авторскими правами, а также файлы нелегального содержания!


    _________________
    [Профиль] [ЛС]
    Показать сообщения:    
    Ответить на тему

    Текущее время: Сегодня, в 22:30

    Часовой пояс: GMT + 2



    Вы не можете начинать темы
    Вы не можете отвечать на сообщения
    Вы не можете редактировать свои сообщения
    Вы не можете удалять свои сообщения
    Вы не можете голосовать в опросах
    Вы не можете прикреплять файлы к сообщениям
    Вы не можете скачивать файлы