BitTorrentTracker PerecTracker.org
BitTorrentTracker PerecTracker.org
    
Регистрация  ·  Вход
 
 · 
Забыли пароль?

  • Круг / Circle (Аарон Ханн / Aaron Hann, Марио Мисионе / Mario Miscione) [2015, США, драма, фантастика, триллер, WEB-DLRip] VO (PashaUP)

    Ответить на тему
     
    Автор Сообщение

    Light

    Создавать темы 08-Апр-2016 09:55

           

    [Цитировать]

    Круг / Circle-
    Страна: США
    Жанр: драма, фантастика, триллер
    Год выхода: 2015
    Продолжительность: 01:26:26-Перевод: Любительский (одноголосый, закадровый) Павел Морозов aka PashaUp-Режиссеры: Аарон Ханн / Aaron Hann, Марио Мисионе / Mario Miscione-В ролях: Джули Бенц, Мерси Мэлик, Сара Сэндерсон, Картер Дженкинс, Майкл Нарделли, Лиза Пеликан, Молли Джексон, Захари Джеймс Рукавина, Лоуренс Као, Сесар Гарсиа Гомес.-Описание: Пятьдесят незнакомцев просыпаются в огромной камере, не имея понятия о том, как попали сюда. Собранные в круг и не способные двигаться, они быстро понимают, что каждые две минуты одного из них будет убивать странное устройство в центре комнаты. Вскоре им становится ясно, что жертва выбирается не случайно, а ими самими, что они могут коллективно влиять на выбор, который делает машина. Но как решить, кто заслуживает умереть? И что будет, когда останется лишь один человек?-Семпл : http://multi-up.com/1096412
    Качество видео: WEB-DLRip
    Формат файла: AVI-Видео: 688x288 (2.35:1), 23.976 fps, XviD build 73 ~1005 kbps avg, 0.211 bit/pixel
    Аудио: 48 kHz, AC3, 2 ch, ~192.00 kbps avg-

    MediaInfo

    Общее
    Полное имя : D:\скачано\Circle.WEB-DLRip.2015.VO.avi
    Формат : AVI
    Формат/Информация : Audio Video Interleave
    Размер файла : 746 Мбайт
    Продолжительность : 1 ч. 26 м.
    Общий поток : 1206 Кбит/сек
    Программа кодирования : VirtualDubMod 1.5.10.2 (build 2542/release)
    Библиотека кодирования : VirtualDubMod build 2542/release
    Видео
    Идентификатор : 0
    Формат : MPEG-4 Visual
    Профиль формата : Advanced Simple@L5
    Параметр BVOP формата : 1
    Параметр QPel формата : Нет
    Параметр GMC формата : Без точки перехода
    Параметр матрицы формата : Default (MPEG)
    Идентификатор кодека : XVID
    Идентификатор кодека/Подсказка : XviD
    Продолжительность : 1 ч. 26 м.
    Битрейт : 1005 Кбит/сек
    Ширина : 688 пикс.
    Высота : 288 пикс.
    Соотношение сторон : 2,35:1
    Частота кадров : 23,976 кадр/сек
    Цветовое пространство : YUV
    Подвыборка цветности : 4:2:0
    Битовая глубина : 8 бит
    Тип развёртки : Прогрессивная
    Метод сжатия : С потерями
    Бит/(Пиксели*Кадры) : 0.211
    Размер потока : 621 Мбайт (83%)
    Библиотека кодирования : XviD 73
    Аудио
    Идентификатор : 1
    Формат : AC-3
    Формат/Информация : Audio Coding 3
    Расширение режима : CM (complete main)
    Идентификатор кодека : 2000
    Продолжительность : 1 ч. 26 м.
    Вид битрейта : Постоянный
    Битрейт : 192 Кбит/сек
    Каналы : 2 канала
    Расположение каналов : Front: L R
    Частота : 48,0 КГц
    Битовая глубина : 16 бит
    Метод сжатия : С потерями
    Размер потока : 119 Мбайт (16%)
    Выравнивание : Разделение по промежуткам
    Продолжительность промежутка : 42 мс. (1,00 видеокадр)
    Время предзагрузки промежутка : 500 ms

    Скриншот с названием

    Скриншоты

    Скачать .torrent

    Скачать торрент-файл бесплатно и на максимальной скорости!

    Как скачивать? · Что такое торрент? · Рейтинг и ограничения

    !ВНИМАНИЕ!
    Сайт не распространяет и не хранит электронные версии произведений, а занимается лишь лишь предоставлением доступа к создаваемому пользователями каталогу ссылок на торрент-файлы, которые содержат только списки хеш-сумм, убедительная просьба с жалобами обращаться напрямую к пользователю. Файлы для обмена на трекере предоставлены пользователями сайта, и администрация не несёт ответственности за их содержание. Просьба не заливать файлы, защищенные авторскими правами, а также файлы нелегального содержания!


    _________________
    [Профиль] [ЛС]
    Показать сообщения:    
    Ответить на тему

    Текущее время: Сегодня, в 01:11

    Часовой пояс: GMT + 2



    Вы не можете начинать темы
    Вы не можете отвечать на сообщения
    Вы не можете редактировать свои сообщения
    Вы не можете удалять свои сообщения
    Вы не можете голосовать в опросах
    Вы не можете прикреплять файлы к сообщениям
    Вы не можете скачивать файлы