BitTorrentTracker PerecTracker.org
BitTorrentTracker PerecTracker.org
    
Регистрация  ·  Вход
 
 · 
Забыли пароль?

  • Ублюдок / Creep (Патрик Брайс / Patrick Brice) [2014, США, Ужасы, драма, WEB-DLRip] AVO (А. Дольский) + Original Eng

    Ответить на тему
     
    Автор Сообщение

    Light

    Создавать темы 08-Апр-2016 09:55

           

    [Цитировать]

    Ублюдок / Creep
    Страна: США
    Жанр: Ужасы, драма
    Год выпуска: 2014
    Продолжительность: 01:17:37
    Перевод: Авторский (одноголосый закадровый) А. Дольский
    Cубтитры: нет
    Оригинальная аудиодорожка: английский
    Режиссер: Патрик Брайс / Patrick Brice
    В ролях: Патрик Брайс, Марк Дюпласс
    Описание: Видеолюбитель Аарон получает странное предложение о работе: приехать в удалённый горный посёлок и поработать личным оператором для одного чудака. Постепенно шалости заказчика становятся все серьёзнее и опаснее, пока не перерастают в нечто очень зловещее.
    Сэмпл: http://multi-up.com/1096413
    Качество видео: WEB-DLRip
    Формат видео: AVI
    Видео: XviD, 1912 Кбит/с, 720x400, 23.976 кадр/с
    Аудио 1: RUS AC3, 48.0 KHz, 6 ch, 384 Кбит/с
    Аудио 2: ENG AC3, 48.0 KHz, 6 ch, 384 Кбит/с

    MediaInfo

    General
    Complete name : G:\Creep.2014.WEBDLRip.avi
    Format : AVI
    Format/Info : Audio Video Interleave
    File size : 1.46 GiB
    Duration : 1h 17mn
    Overall bit rate : 2 693 Kbps
    Writing application : VirtualDubMod 1.5.10.2 (build 2540/release)
    Writing library : VirtualDubMod build 2540/release
    Video
    ID : 0
    Format : MPEG-4 Visual
    Format profile : Advanced Simple@L5
    Format settings, BVOP : 1
    Format settings, QPel : No
    Format settings, GMC : No warppoints
    Format settings, Matrix : Default (MPEG)
    Codec ID : XVID
    Codec ID/Hint : XviD
    Duration : 1h 17mn
    Bit rate : 1 912 Kbps
    Width : 720 pixels
    Height : 400 pixels
    Display aspect ratio : 16:9
    Frame rate : 23.976 fps
    Color space : YUV
    Chroma subsampling : 4:2:0
    Bit depth : 8 bits
    Scan type : Progressive
    Compression mode : Lossy
    Bits/(Pixel*Frame) : 0.277
    Stream size : 1.04 GiB (71%)
    Writing library : XviD 67
    Audio #1
    ID : 1
    Format : AC-3
    Format/Info : Audio Coding 3
    Mode extension : CM (complete main)
    Format settings, Endianness : Big
    Codec ID : 2000
    Duration : 1h 17mn
    Bit rate mode : Constant
    Bit rate : 384 Kbps
    Channel(s) : 6 channels
    Channel positions : Front: L C R, Side: L R, LFE
    Sampling rate : 48.0 KHz
    Compression mode : Lossy
    Stream size : 213 MiB (14%)
    Alignment : Split accross interleaves
    Interleave, duration : 42 ms (1.00 video frame)
    Interleave, preload duratio : 500 ms
    Title : RUS AVO
    Audio #2
    ID : 2
    Format : AC-3
    Format/Info : Audio Coding 3
    Mode extension : CM (complete main)
    Format settings, Endianness : Big
    Codec ID : 2000
    Duration : 1h 17mn
    Bit rate mode : Constant
    Bit rate : 384 Kbps
    Channel(s) : 6 channels
    Channel positions : Front: L C R, Side: L R, LFE
    Sampling rate : 48.0 KHz
    Compression mode : Lossy
    Stream size : 213 MiB (14%)
    Alignment : Split accross interleaves
    Interleave, duration : 42 ms (1.00 video frame)
    Interleave, preload duratio : 500 ms
    Title : ENG

    Скриншот c названием фильма

    Скриншоты

    Скачать .torrent

    Скачать торрент-файл бесплатно и на максимальной скорости!

    Как скачивать? · Что такое торрент? · Рейтинг и ограничения

    !ВНИМАНИЕ!
    Сайт не распространяет и не хранит электронные версии произведений, а занимается лишь лишь предоставлением доступа к создаваемому пользователями каталогу ссылок на торрент-файлы, которые содержат только списки хеш-сумм, убедительная просьба с жалобами обращаться напрямую к пользователю. Файлы для обмена на трекере предоставлены пользователями сайта, и администрация не несёт ответственности за их содержание. Просьба не заливать файлы, защищенные авторскими правами, а также файлы нелегального содержания!


    _________________
    [Профиль] [ЛС]
    Показать сообщения:    
    Ответить на тему

    Текущее время: Сегодня, в 05:16

    Часовой пояс: GMT + 2



    Вы не можете начинать темы
    Вы не можете отвечать на сообщения
    Вы не можете редактировать свои сообщения
    Вы не можете удалять свои сообщения
    Вы не можете голосовать в опросах
    Вы не можете прикреплять файлы к сообщениям
    Вы не можете скачивать файлы