BitTorrentTracker PerecTracker.org
BitTorrentTracker PerecTracker.org
    
Регистрация  ·  Вход
 
 · 
Забыли пароль?

  • Морские дьяволы. Смерч / Сезон 3 / Серии: 1-32 из 32 (Сергей Винокуров, Евгений Малков, Александра Бутько, Наталия Бучнева, Александр Картохин, Вадим Кауров, Сергей Раевский, Сергей Васильев) [2015, Криминал, приключения HDTVRip]

    Ответить на тему
     
    Автор Сообщение

    rechyn

    Создавать темы 08-Апр-2016 08:11

           

    [Цитировать]

    Морские дьяволы. Смерч-3Год выпуска: 2015
    Производство: ООО "Гамма-продакшн"
    Жанр: Криминал, приключения
    Продолжительность: 00:45:00
    Субтитры: нет
    Режиссёр: Сергей Винокуров, Евгений Малков, Александра Бутько, Наталия Бучнева, Александр Картохин, Вадим Кауров, Сергей Раевский, Сергей Васильев
    В ролях: Олег Чернов, Дарья Юргенс, Иван Паршин, Антон Гуляев, Владимир Ярош, Дарья Циберкина, Снежана Прудько, Игорь Григорьев, Виктор Смирнов, Олег Андреев, Семён Морозов, Игорь Лепихин, Михаил Черняк, Андрей Дежонов, Елена Радевич, Наталья Ткаченко, Валерий Дегтярь, Вадим Сквирский, Юрий Архангельский, Сергей Дьячков, Джулиано Ди Капуа, Евгений Сиротин, Олег Морозов, Вадим Парфёнов, Александр Маковский, Александр Ронис, Алексей Парасевич, Константин Клюквин, Юрий Елагин, Глеб Щур, Игорь Михайлов, Алексей Красноцветов, Александр Овчинников, Артем Шилов, Оксана Сырцова, Инна Ярмошук, Ирина Ворон, Александр Сергеев, Юрий Ковалёв, Андрей Соломыков, Вячеслав Аркунов, Александр Глебов, Жанна Куприянова, Дмитрий Белов, Александр Загребин
    Описание: Продолжение проекта "Морские дьяволы. Смерч" - о бойцах спецподразделения "Смерч".
    Релиз группа
    Все раздачи сериала
    Сэмпл
    Качество: HDTVRip
    Формат: AVI
    Видео кодек: XviD
    Аудио кодек: AC3
    Видео: 720x400 (1.80:1), 25 fps, XviD build 73 ~1467 kbps avg, 0.22 bit/pixel
    Аудио: 48 kHz, AC3 Dolby Digital, 2/0 (L,R) ch, ~192.00 kbps avg

    MI

    General
    Complete name : X:\раздачи\Morskije.djavoly.3.2015.HDTVRip.Files-x.Morskije.djavoly.3.2015.HDTVRip.Files-x.avi
    Format : AVI
    Format/Info : Audio Video Interleave
    File size : 550 MiB
    Duration : 43mn 7s
    Overall bit rate : 1 784 Kbps
    Writing application : VirtualDubModRus 1.5.10.2 (build 2542/release)
    Writing library : VirtualDubMod build 2542/release
    Video
    ID : 0
    Format : MPEG-4 Visual
    Format profile : Advanced Simple@L5
    Format settings, BVOP : 1
    Format settings, QPel : No
    Format settings, GMC : No warppoints
    Format settings, Matrix : Custom
    Codec ID : XVID
    Codec ID/Hint : XviD
    Duration : 43mn 7s
    Bit rate : 1 583 Kbps
    Width : 720 pixels
    Height : 400 pixels
    Display aspect ratio : 16:9
    Frame rate : 25.000 fps
    Color space : YUV
    Chroma subsampling : 4:2:0
    Bit depth : 8 bits
    Scan type : Progressive
    Compression mode : Lossy
    Bits/(Pixel*Frame) : 0.220
    Stream size : 488 MiB (89%)
    Writing library : XviD 73
    Audio
    ID : 1
    Format : AC-3
    Format/Info : Audio Coding 3
    Mode extension : CM (complete main)
    Format settings, Endianness : Big
    Codec ID : 2000
    Duration : 43mn 7s
    Bit rate mode : Constant
    Bit rate : 192 Kbps
    Channel(s) : 2 channels
    Channel positions : Front: L R
    Sampling rate : 48.0 KHz
    Frame rate : 31.250 fps (1536 spf)
    Compression mode : Lossy
    Stream size : 59.2 MiB (11%)
    Alignment : Split accross interleaves
    Interleave, duration : 40 ms (1.00 video frame)
    Interleave, preload duratio : 500 ms

    Скриншоты


    Скачать .torrent

    Скачать торрент-файл бесплатно и на максимальной скорости!

    Как скачивать? · Что такое торрент? · Рейтинг и ограничения

    !ВНИМАНИЕ!
    Сайт не распространяет и не хранит электронные версии произведений, а занимается лишь лишь предоставлением доступа к создаваемому пользователями каталогу ссылок на торрент-файлы, которые содержат только списки хеш-сумм, убедительная просьба с жалобами обращаться напрямую к пользователю. Файлы для обмена на трекере предоставлены пользователями сайта, и администрация не несёт ответственности за их содержание. Просьба не заливать файлы, защищенные авторскими правами, а также файлы нелегального содержания!


    _________________
    [Профиль] [ЛС]
    Показать сообщения:    
    Ответить на тему

    Текущее время: Сегодня, в 18:23

    Часовой пояс: GMT + 2



    Вы не можете начинать темы
    Вы не можете отвечать на сообщения
    Вы не можете редактировать свои сообщения
    Вы не можете удалять свои сообщения
    Вы не можете голосовать в опросах
    Вы не можете прикреплять файлы к сообщениям
    Вы не можете скачивать файлы