Register  ·  Log in
Forgot password?

  • Песнь заката / Sunset Song (Теренс Дэвис / Terence Davies) [2015, Великобритания, Люксембург, драма, HDRip] Dub (iTunes) + Sub Eng

    Reply to topic
    Author Message


    Post 08-Apr-2016 02:48



    -Песнь заката / Sunset Song-Страна: Великобритания, Люксембург
    Жанр: драма
    Год выпуска: 2015
    Продолжительность: 02:15:49-Перевод: Профессиональный (дублированный) iTunes
    Cубтитры: английские (внешние srt)-Режиссер: Теренс Дэвис / Terence Davies-В ролях: Питер Муллан, Агнесс Дейн, Рон Донаки, Кевин Гатри, Даниэла Нардини, Хью Росс, Йен Пири, Джэми Мичи, Ниал Грег Фултон, Дуглас Рэнкин-Описание: В центре семейной саги — судьба стойкой Крис Гутри, дочери фермера. Рано потеряв мать, юная Крис вынуждена управлять хозяйством под строгим надзором своего деспотичного отца. Встретив любовь, она выйдет замуж, родит сына, но начавшаяся в Европе Первая мировая война принесет ей новые испытания.- -Качество видео: HDRip
    Формат видео: AVI
    Видео: XviD 720x304 (2.35:1), 23.976 fps, 1 900 Kbps, 0.362 bit/pixel
    Аудио: 48 kHz, AC3 Dolby Digital, 3/2 (L,C,R,l,r) + LFE ch, ~384.00 kbps avg-


    Complete name : D:\Фильмы\Песнь заката Sunset Song 2015 HDRip\Песнь заката Sunset Song 2015 HDRip.avi
    Format : AVI
    Format/Info : Audio Video Interleave
    Format profile : OpenDML
    File size : 2.18 GiB
    Duration : 2h 15mn
    Overall bit rate : 2 296 Kbps
    Writing application : VirtualDubMod (build 2540/release)
    Writing library : VirtualDubMod build 2540/release
    ID : 0
    Format : MPEG-4 Visual
    Format profile : Advanced Simple@L5
    Format settings, BVOP : 2
    Format settings, QPel : No
    Format settings, GMC : No warppoints
    Format settings, Matrix : Default (MPEG)
    Codec ID : XVID
    Codec ID/Hint : XviD
    Duration : 2h 15mn
    Bit rate : 1 900 Kbps
    Width : 720 pixels
    Height : 304 pixels
    Display aspect ratio : 2.35:1
    Frame rate : 23.976 (23976/1000) fps
    Color space : YUV
    Chroma subsampling : 4:2:0
    Bit depth : 8 bits
    Scan type : Progressive
    Compression mode : Lossy
    Bits/(Pixel*Frame) : 0.362
    Stream size : 1.80 GiB (83%)
    Writing library : XviD 1.2.1 (UTC 2008-12-04)
    ID : 1
    Format : AC-3
    Format/Info : Audio Coding 3
    Mode extension : CM (complete main)
    Format settings, Endianness : Big
    Codec ID : 2000
    Duration : 2h 15mn
    Bit rate mode : Constant
    Bit rate : 384 Kbps
    Channel(s) : 6 channels
    Channel positions : Front: L C R, Side: L R, LFE
    Sampling rate : 48.0 KHz
    Frame rate : 31.250 fps (1536 spf)
    Compression mode : Lossy
    Stream size : 373 MiB (17%)
    Alignment : Split accross interleaves
    Interleave, duration : 42 ms (1.00 video frame)
    Interleave, preload duratio : 500 ms


    Скриншот c названием фильма


    Download .torrent

    Download free and at maximum speed!

    How to Download? · What is a torrent? · Ratings and Limitations

    The site does not extend and does not store electronic(digital) versions of products, and only gives access to a reference catalogue created by users on torrent-files which contain only lists of the hash-sums, the earnest entreaty, with complaints(abuse) to access directly to the user. Files for an exchange on tracker are given by users of a site, and the administration does not bear the responsibility for their maintenance. The request to not fill in the files protected by copyrights, and also files of the illegal maintenance!

    [Profile] [PM]
    Display posts from previous:    
    Reply to topic

    The time now is: Today 12:07

    All times are GMT + 3 Hours

    You cannot post new topics in this forum
    You cannot reply to topics in this forum
    You cannot edit your posts in this forum
    You cannot delete your posts in this forum
    You cannot vote in polls in this forum
    You cannot attach files in this forum
    You cannot download files in this forum