BitTorrentTracker PerecTracker.org
BitTorrentTracker PerecTracker.org
    
Регистрация  ·  Вход
 
 · 
Забыли пароль?

  • Песнь заката / Sunset Song (Теренс Дэвис / Terence Davies) [2015, Великобритания, Люксембург, драма, HDRip] Dub (iTunes) + Sub Eng

    Ответить на тему
     
    Автор Сообщение

    Light

    Создавать темы 08-Апр-2016 01:48

           

    [Цитировать]

    -Песнь заката / Sunset Song-Страна: Великобритания, Люксембург
    Жанр: драма
    Год выпуска: 2015
    Продолжительность: 02:15:49-Перевод: Профессиональный (дублированный) iTunes
    Cубтитры: английские (внешние srt)-Режиссер: Теренс Дэвис / Terence Davies-В ролях: Питер Муллан, Агнесс Дейн, Рон Донаки, Кевин Гатри, Даниэла Нардини, Хью Росс, Йен Пири, Джэми Мичи, Ниал Грег Фултон, Дуглас Рэнкин-Описание: В центре семейной саги — судьба стойкой Крис Гутри, дочери фермера. Рано потеряв мать, юная Крис вынуждена управлять хозяйством под строгим надзором своего деспотичного отца. Встретив любовь, она выйдет замуж, родит сына, но начавшаяся в Европе Первая мировая война принесет ей новые испытания.- -Качество видео: HDRip
    Формат видео: AVI
    Видео: XviD 720x304 (2.35:1), 23.976 fps, 1 900 Kbps, 0.362 bit/pixel
    Аудио: 48 kHz, AC3 Dolby Digital, 3/2 (L,C,R,l,r) + LFE ch, ~384.00 kbps avg-

    MediaInfo

    General
    Complete name : D:\Фильмы\Песнь заката Sunset Song 2015 HDRip\Песнь заката Sunset Song 2015 HDRip.avi
    Format : AVI
    Format/Info : Audio Video Interleave
    Format profile : OpenDML
    File size : 2.18 GiB
    Duration : 2h 15mn
    Overall bit rate : 2 296 Kbps
    Writing application : VirtualDubMod 1.5.10.2 (build 2540/release)
    Writing library : VirtualDubMod build 2540/release
    Video
    ID : 0
    Format : MPEG-4 Visual
    Format profile : Advanced Simple@L5
    Format settings, BVOP : 2
    Format settings, QPel : No
    Format settings, GMC : No warppoints
    Format settings, Matrix : Default (MPEG)
    Codec ID : XVID
    Codec ID/Hint : XviD
    Duration : 2h 15mn
    Bit rate : 1 900 Kbps
    Width : 720 pixels
    Height : 304 pixels
    Display aspect ratio : 2.35:1
    Frame rate : 23.976 (23976/1000) fps
    Color space : YUV
    Chroma subsampling : 4:2:0
    Bit depth : 8 bits
    Scan type : Progressive
    Compression mode : Lossy
    Bits/(Pixel*Frame) : 0.362
    Stream size : 1.80 GiB (83%)
    Writing library : XviD 1.2.1 (UTC 2008-12-04)
    Audio
    ID : 1
    Format : AC-3
    Format/Info : Audio Coding 3
    Mode extension : CM (complete main)
    Format settings, Endianness : Big
    Codec ID : 2000
    Duration : 2h 15mn
    Bit rate mode : Constant
    Bit rate : 384 Kbps
    Channel(s) : 6 channels
    Channel positions : Front: L C R, Side: L R, LFE
    Sampling rate : 48.0 KHz
    Frame rate : 31.250 fps (1536 spf)
    Compression mode : Lossy
    Stream size : 373 MiB (17%)
    Alignment : Split accross interleaves
    Interleave, duration : 42 ms (1.00 video frame)
    Interleave, preload duratio : 500 ms

    -

    Скриншот c названием фильма

    Скриншоты


    -
    Скачать .torrent

    Скачать торрент-файл бесплатно и на максимальной скорости!

    Как скачивать? · Что такое торрент? · Рейтинг и ограничения

    !ВНИМАНИЕ!
    Сайт не распространяет и не хранит электронные версии произведений, а занимается лишь лишь предоставлением доступа к создаваемому пользователями каталогу ссылок на торрент-файлы, которые содержат только списки хеш-сумм, убедительная просьба с жалобами обращаться напрямую к пользователю. Файлы для обмена на трекере предоставлены пользователями сайта, и администрация не несёт ответственности за их содержание. Просьба не заливать файлы, защищенные авторскими правами, а также файлы нелегального содержания!


    _________________
    [Профиль] [ЛС]
    Показать сообщения:    
    Ответить на тему

    Текущее время: Сегодня, в 02:34

    Часовой пояс: GMT + 2



    Вы не можете начинать темы
    Вы не можете отвечать на сообщения
    Вы не можете редактировать свои сообщения
    Вы не можете удалять свои сообщения
    Вы не можете голосовать в опросах
    Вы не можете прикреплять файлы к сообщениям
    Вы не можете скачивать файлы