BitTorrentTracker PerecTracker.org
BitTorrentTracker PerecTracker.org
    
Регистрация  ·  Вход
 
 · 
Забыли пароль?

  • Кража автомобилей / Stealing Cars (Брэдли Каплан / Bradley Kaplan) [2015, США, драма, DVDRip] MVO

    Ответить на тему
     
    Автор Сообщение

    Light

    Создавать темы 07-Апр-2016 21:44

           

    [Цитировать]

    -Кража автомобилей / Stealing Cars-Страна: США
    Жанр: драма
    Год выпуска: 2015
    Продолжительность: 01:41:49-Перевод: Профессиональный (многоголосый закадровый)
    Cубтитры: нет-Режиссер: Брэдли Каплан / Bradley Kaplan-В ролях: Эмори Коэн, Уильям Х. Мэйси, Джон Легуизамо, Фелисити Хаффман, Пол Спаркс, Хезер Линд, Майк Эппс, Чэнс Келли, Тарик Троттер, Аль Калдерон-Описание: Когда жизнь Билли Уайта пошла под откос, он ударился в криминал. Парень попался на автомобильной краже и угодил в подростковую колонию, известную как Бернвилльский лагерь для мальчиков. В первом же день Билли испытал на своей шкуре все «перелести» местных порядков и деспотизм тюремных надзирателей, которые любой случайный взгляд принимают как личное оскорбление. Своенравному, свободолюбивому и обладающему живым умом молодому человеку, который так не похож на других заключенных, здесь явно придется тяжело. Но Билли не из тех, кто легко сдается. Он решает установить свои порядки и искоренить произвол тюремщиков. Революционные идеи Уайта находят как своих сторонников, так и ярых противников…--Качество видео: DVDRip
    Формат видео: AVI
    Видео: 720Х384 (16:9) 23.976 fps, 1 665 kbps,0.251 bit/pixel
    Аудио: 48 kHz, MP3, 2 ch, 256 kbps-

    MediaInfo

    General
    Complete name : D:\Фильмы\Stealing.Cars.2015.DVDRip.avi
    Format : AVI
    Format/Info : Audio Video Interleave
    File size : 1.37 GiB
    Duration : 1h 41mn
    Overall bit rate : 1 931 Kbps
    Movie name : rustorrents.info
    Writing application : VirtualDubMod 1.5.10.3 | www.virtualdub-fr.org || (build 2550/release)
    Video
    ID : 0
    Format : MPEG-4 Visual
    Format profile : Advanced Simple@L5
    Format settings, BVOP : 2
    Format settings, QPel : No
    Format settings, GMC : No warppoints
    Format settings, Matrix : Custom
    Codec ID : XVID
    Codec ID/Hint : XviD
    Duration : 1h 41mn
    Bit rate : 1 665 Kbps
    Width : 720 pixels
    Height : 384 pixels
    Display aspect ratio : 1.85:1
    Frame rate : 23.976 (23976/1000) fps
    Color space : YUV
    Chroma subsampling : 4:2:0
    Bit depth : 8 bits
    Scan type : Progressive
    Compression mode : Lossy
    Bits/(Pixel*Frame) : 0.251
    Stream size : 1.18 GiB (86%)
    Writing library : XviD 1.2.1 (UTC 2008-12-04)
    Audio
    ID : 1
    Format : MPEG Audio
    Format version : Version 1
    Format profile : Layer 3
    Mode : Joint stereo
    Codec ID : 55
    Codec ID/Hint : MP3
    Duration : 1h 41mn
    Bit rate mode : Constant
    Bit rate : 256 Kbps
    Channel(s) : 2 channels
    Sampling rate : 48.0 KHz
    Compression mode : Lossy
    Stream size : 186 MiB (13%)
    Alignment : Aligned on interleaves
    Interleave, duration : 42 ms (1.00 video frame)
    Interleave, preload duratio : 504 ms

    -

    Скриншот c названием фильма

    Скриншоты

    -
    Скачать .torrent

    Скачать торрент-файл бесплатно и на максимальной скорости!

    Как скачивать? · Что такое торрент? · Рейтинг и ограничения

    !ВНИМАНИЕ!
    Сайт не распространяет и не хранит электронные версии произведений, а занимается лишь лишь предоставлением доступа к создаваемому пользователями каталогу ссылок на торрент-файлы, которые содержат только списки хеш-сумм, убедительная просьба с жалобами обращаться напрямую к пользователю. Файлы для обмена на трекере предоставлены пользователями сайта, и администрация не несёт ответственности за их содержание. Просьба не заливать файлы, защищенные авторскими правами, а также файлы нелегального содержания!


    _________________
    [Профиль] [ЛС]
    Показать сообщения:    
    Ответить на тему

    Текущее время: Сегодня, в 11:55

    Часовой пояс: GMT + 2



    Вы не можете начинать темы
    Вы не можете отвечать на сообщения
    Вы не можете редактировать свои сообщения
    Вы не можете удалять свои сообщения
    Вы не можете голосовать в опросах
    Вы не можете прикреплять файлы к сообщениям
    Вы не можете скачивать файлы