BitTorrentTracker PerecTracker.org
BitTorrentTracker PerecTracker.org
    
Регистрация  ·  Вход
 
 · 
Забыли пароль?

  • (Soundtrack) Разборки в маленьком Токио / Showdown in Little Tokyo (David Michael Frank) - 1991, FLAC (image+.cue), lossless

    Ответить на тему
     
    Автор Сообщение

    Columb

    Создавать темы 21-Янв-2014 07:44

           

    [Цитировать]

    Разборки в маленьком Токио / Showdown in Little Tokyo
    Жанр: Soundtrack
    Композитор: David Michael Frank
    Год выпуска диска: 1991
    Год выпуска фильма: 1991
    Страна-производитель диска: USA
    Издатель (лейбл): © + ® Nouveau/K-tel International
    Номер по каталогу: 10162
    Аудиокодек: FLAC (*.flac)
    Тип рипа: image+.cue
    Битрейт аудио: lossless
    Продолжительность: 32:45
    Источник: собственный рип
    Наличие сканов в содержимом раздачи: да
    Tracklist:
    01. Main Title
    02. The Iron Claw
    03. Brewery Battle
    04. Noble Quest
    05. Death And Dishonor
    06. Private Moment
    07. Slippery When Wet
    08. Yakety Yakuza
    09. Saving Minaka
    10. Kenner And Johnny
    11. Brewery Bust
    12. Haydn Seek
    13. Little Tokyo
    14. Heavy Metal Sushi
    15. Into The Vat
    16. Death And Disfiguration
    Доп. информация: Считается что стремление к обладанию гораздо интереснее самого овладевания чем либо, Знаю Многие искали и жаждали найти сей Soundtrack Овладевайте и наслождайтесь !!

    Лог создания рипа

    Exact Audio Copy V1.0 beta 3 from 29. August 2011
    EAC extraction logfile from 19. January 2014, 18:56
    David Michael Frank / Showdown In Little Tokyo
    Used drive : ASUS DRW-24B3LT Adapter: 2 ID: 0
    Read mode : SecureUtilize accurate stream : YesDefeat audio cache : YesMake use of C2 pointers : No
    Read offset correction : 6Overread into Lead-In and Lead-Out : NoFill up missing offset samples with silence : YesDelete leading and trailing silent blocks : NoNull samples used in CRC calculations : YesUsed interface : Native Win32 interface for Win NT & 2000
    Used output format : Internal WAV RoutinesSample format : 44.100 Hz; 16 Bit; Stereo
    TOC of the extracted CD
    Track | Start | Length | Start sector | End sector --------------------------------------------------------- 1 | 0:00.32 | 2:17.20 | 32 | 10326 2 | 2:17.52 | 2:46.60 | 10327 | 22836 3 | 5:04.37 | 1:29.18 | 22837 | 29529 4 | 6:33.55 | 0:59.67 | 29530 | 34021 5 | 7:33.47 | 2:30.55 | 34022 | 45326 6 | 10:04.27 | 1:03.35 | 45327 | 50086 7 | 11:07.62 | 5:16.20 | 50087 | 73806 8 | 16:24.07 | 2:57.38 | 73807 | 87119 9 | 19:21.45 | 2:51.72 | 87120 | 100016 10 | 22:13.42 | 1:36.00 | 100017 | 107216 11 | 23:49.42 | 1:40.33 | 107217 | 114749 12 | 25:30.00 | 1:49.57 | 114750 | 122981 13 | 27:19.57 | 1:27.03 | 122982 | 129509 14 | 28:46.60 | 2:03.52 | 129510 | 138786 15 | 30:50.37 | 1:10.25 | 138787 | 144061 16 | 32:00.62 | 0:51.20 | 144062 | 147906
    Range status and errors
    Selected range
    Filename D:\Osieron\Desktop\Test&Copy\David Michael Frank - Showdown In Little Tokyo.wav
    Peak level 97.7 % Extraction speed 4.8 X Range quality 99.9 % Test CRC 0EBF2C74 Copy CRC 0EBF2C74 Copy OK
    No errors occurred
    AccurateRip summary
    Track 1 accurately ripped (confidence 2) [8BD18218] (AR v1)Track 2 accurately ripped (confidence 2) [599AD41F] (AR v1)Track 3 accurately ripped (confidence 2) [4D95C7D1] (AR v1)Track 4 accurately ripped (confidence 2) [3F8F5A76] (AR v1)Track 5 accurately ripped (confidence 2) [51F05302] (AR v1)Track 6 accurately ripped (confidence 2) [6BAFA0E0] (AR v1)Track 7 accurately ripped (confidence 2) [E5DA2CA7] (AR v1)Track 8 accurately ripped (confidence 2) [F5DBD6AD] (AR v1)Track 9 accurately ripped (confidence 2) [4461AD58] (AR v1)Track 10 accurately ripped (confidence 2) [AC36391A] (AR v1)Track 11 accurately ripped (confidence 2) [DE4151A2] (AR v1)Track 12 accurately ripped (confidence 2) [EBC5FFDC] (AR v1)Track 13 accurately ripped (confidence 2) [5C7913E6] (AR v1)Track 14 accurately ripped (confidence 2) [1DFBAE3E] (AR v1)Track 15 accurately ripped (confidence 2) [6923F761] (AR v1)Track 16 cannot be verified as accurate (confidence 2) [7D3BC69C], AccurateRip returned [4F625061] (AR v2)
    15 track(s) accurately ripped 1 track(s) could not be verified as accurate
    Some tracks could not be verified as accurate
    End of status report

    Лог проверки качества

    foobar2000 1.2.9 / Замер динамического диапазона (DR) 1.1.1Дата отчёта: 2014-01-20 00:09:30
    --------------------------------------------------------------------------------Анализ: David Michael Frank / Showdown In Little Tokyo--------------------------------------------------------------------------------
    DR Пики RMS Продолжительность трека--------------------------------------------------------------------------------DR13 -0.20 дБ -17.77 дБ 2:17 01-Main TitleDR12 -4.46 дБ -20.03 дБ 2:47 02-The Iron ClawDR13 -2.05 дБ -18.96 дБ 1:29 03-Brewery BattleDR12 -0.87 дБ -17.23 дБ 1:00 04-Noble QuestDR12 -0.94 дБ -18.63 дБ 2:31 05-Death And DishonorDR11 -8.49 дБ -23.29 дБ 1:03 06-Private MomentDR15 -0.83 дБ -18.65 дБ 5:16 07-Slippery When WetDR13 -1.23 дБ -20.42 дБ 2:58 08-Yakety YakuzaDR14 -0.34 дБ -17.53 дБ 2:52 09-Saving MinakaDR13 -5.84 дБ -23.21 дБ 1:36 10-Kenner And JohnnyDR15 -0.43 дБ -19.15 дБ 1:40 11-Brewery BustDR14 -1.21 дБ -19.46 дБ 1:50 12-Haydn SeekDR10 -9.56 дБ -22.78 дБ 1:27 13-Little TokyoDR15 -1.88 дБ -19.21 дБ 2:04 14-Heavy Metal SushiDR14 -0.40 дБ -19.73 дБ 1:10 15-Into The VatDR14 -2.22 дБ -21.50 дБ 0:51 16-Death And Disfiguration--------------------------------------------------------------------------------
    Количество треков: 16Реальные значения DR: DR13
    Частота: 44100 гцКаналов: 2Бит на сэмпл: 16Битрейт: 710 кбит/сКодек: FLAC================================================================================
    Скачать .torrent

    Скачать торрент-файл бесплатно и на максимальной скорости!

    Как скачивать? · Что такое торрент? · Рейтинг и ограничения

    !ВНИМАНИЕ!
    Сайт не распространяет и не хранит электронные версии произведений, а занимается лишь лишь предоставлением доступа к создаваемому пользователями каталогу ссылок на торрент-файлы, которые содержат только списки хеш-сумм, убедительная просьба с жалобами обращаться напрямую к пользователю. Файлы для обмена на трекере предоставлены пользователями сайта, и администрация не несёт ответственности за их содержание. Просьба не заливать файлы, защищенные авторскими правами, а также файлы нелегального содержания!

    [Профиль] [ЛС]
    Показать сообщения:    
    Ответить на тему

    Текущее время: Сегодня, в 16:21

    Часовой пояс: GMT + 2



    Вы не можете начинать темы
    Вы не можете отвечать на сообщения
    Вы не можете редактировать свои сообщения
    Вы не можете удалять свои сообщения
    Вы не можете голосовать в опросах
    Вы не можете прикреплять файлы к сообщениям
    Вы не можете скачивать файлы