BitTorrentTracker PerecTracker.org
BitTorrentTracker PerecTracker.org
    
Регистрация  ·  Вход
 
 · 
Забыли пароль?

  • Воронины / Сезон 14 / Серии 1-32 из 32 (285-316 из 316) (Aлександр Жигaлкин, Aртём Лoгинов) [2014 г., комедия, семейное кино, IPTVRip]

    Ответить на тему
     
    Автор Сообщение

    vlad

    Создавать темы 07-Апр-2016 13:20

           

    [Цитировать]

    Воронины / Сезон 14 / Серии 1-32 из 32 (285-316 из 316)
    Год выпуска: 2014
    Производство: Россия, СТС
    Жанр: комедия, семейное кино
    Продолжительность: 32 серии по ~ 24 минуты
    Субтитры: нет
    Режиссёры: Александр Жигалкин, Артём Логинов
    В ролях: Георгий (Егор) Дронов, Екатерина Волкова (II), Станислав Дужников, Борис Клюев, Анна Фроловцева
    Описание: В обычном доме в трехкомнатной квартире живет молодая семья: Костя, его жена Вера и их дети – пятилетняя дочка и два маленьких сына-близнеца. Костя – известный спортивный журналист. Жена Вера любит его и ведет все хозяйство, а дети не доставляют много хлопот. Гораздо больше хлопот им приносят родители Кости, которые живут напротив на той же лестничной площадке… Воронины – это история о том, что иногда родственники бывают слишком близкими.
    Релиз: Shel
    Все раздачи сериала
    Сэмпл: multi-up.com
    Качество: IPTVRip
    Формат: AVI
    Видео кодек: XviD
    Аудио кодек: MP3
    Видео: 704x528 (1.33:1), 25 fps, XviD MPEG-4 ~1850 kbps avg, 0.20 bit/pixel
    Аудио: 48 kHz, MPEG Layer 3, 2 ch, ~128.00 kbps avg

    MI

    General
    Format : AVI
    Format/Info : Audio Video Interleave
    File size : 327 MiB
    Duration : 23mn 2s
    Overall bit rate : 1 983 Kbps
    Writing library : VirtualDub build 30080/release
    Video
    ID : 0
    Format : MPEG-4 Visual
    Format profile : Advanced Simple@L5
    Format settings, BVOP : 2
    Format settings, QPel : No
    Format settings, GMC : No warppoints
    Format settings, Matrix : Default (H.263)
    Muxing mode : Packed bitstream
    Codec ID : XVID
    Codec ID/Hint : XviD
    Duration : 23mn 2s
    Bit rate : 1 845 Kbps
    Width : 704 pixels
    Height : 528 pixels
    Display aspect ratio : 4:3
    Frame rate : 25.000 fps
    Color space : YUV
    Chroma subsampling : 4:2:0
    Bit depth : 8 bits
    Scan type : Progressive
    Compression mode : Lossy
    Bits/(Pixel*Frame) : 0.199
    Stream size : 304 MiB (93%)
    Writing library : XviD 64
    Audio
    ID : 1
    Format : MPEG Audio
    Format version : Version 1
    Format profile : Layer 3
    Codec ID : 55
    Codec ID/Hint : MP3
    Duration : 23mn 2s
    Bit rate mode : Constant
    Bit rate : 128 Kbps
    Channel count : 2 channels
    Sampling rate : 48.0 KHz
    Compression mode : Lossy
    Stream size : 21.1 MiB (6%)
    Alignment : Split accross interleaves
    Interleave, duration : 40 ms (1.00 video frame)
    Interleave, preload duration : 500 ms

    Скриншоты

    Как скачать отдельный файл из торрента или докачать ранее пропущенные файлы торрента
    Скачать .torrent

    Скачать торрент-файл бесплатно и на максимальной скорости!

    Как скачивать? · Что такое торрент? · Рейтинг и ограничения

    !ВНИМАНИЕ!
    Сайт не распространяет и не хранит электронные версии произведений, а занимается лишь лишь предоставлением доступа к создаваемому пользователями каталогу ссылок на торрент-файлы, которые содержат только списки хеш-сумм, убедительная просьба с жалобами обращаться напрямую к пользователю. Файлы для обмена на трекере предоставлены пользователями сайта, и администрация не несёт ответственности за их содержание. Просьба не заливать файлы, защищенные авторскими правами, а также файлы нелегального содержания!


    _________________
    [Профиль] [ЛС]
    Показать сообщения:    
    Ответить на тему

    Текущее время: Сегодня, в 14:16

    Часовой пояс: GMT + 2



    Вы не можете начинать темы
    Вы не можете отвечать на сообщения
    Вы не можете редактировать свои сообщения
    Вы не можете удалять свои сообщения
    Вы не можете голосовать в опросах
    Вы не можете прикреплять файлы к сообщениям
    Вы не можете скачивать файлы