BitTorrentTracker PerecTracker.org
BitTorrentTracker PerecTracker.org
    
Регистрация  ·  Вход
 
 · 
Забыли пароль?

  • (Score) Росомаха: Бессмертный / The Wolverine (Marco Beltrami) - 2013, FLAC (tracks+.cue), lossless

    Ответить на тему
     
    Автор Сообщение

    Columb

    Создавать темы 21-Янв-2014 07:41

           

    [Цитировать]

    Росомаха: Бессмертный / The Wolverine--Жанр: Score
    Композитор: Marco Beltrami
    Год выпуска диска: 2013
    Издатель (лейбл): Sony Classical
    Аудиокодек: FLAC (*.flac)
    Тип рипа: tracks+.cue
    Битрейт аудио: lossless
    Продолжительность: 58:42
    Источник: lztr.us (Grack21 )
    Треклист:
    [01:02] 01. Marco Beltrami - A Walk In The Woods
    [01:15] 02. Marco Beltrami - Threnody For Nagasaki
    [01:36] 03. Marco Beltrami - Euthanasia
    [03:56] 04. Marco Beltrami - Logan's Run
    [03:15] 05. Marco Beltrami - The Offer
    [02:09] 06. Marco Beltrami - Arriving At The Temple
    [04:22] 07. Marco Beltrami - Funeral Fight
    [04:04] 08. Marco Beltrami - Two Handed
    [01:31] 09. Marco Beltrami - Bullet Train
    [01:32] 10. Marco Beltrami - The Snare
    [02:11] 11. Marco Beltrami - Abduction
    [01:54] 12. Marco Beltrami - Trusting
    [03:40] 13. Marco Beltrami - Ninja Quiet
    [03:50] 14. Marco Beltrami - Kantana Surgery
    [02:21] 15. Marco Beltrami - The Wolverine
    [05:02] 16. Marco Beltrami - The Hidden Fortress
    [03:27] 17. Marco Beltrami - Silver Samurai
    [04:32] 18. Marco Beltrami - Sword Of Vengeance
    [01:21] 19. Marco Beltrami - Dreams
    [01:01] 20. Marco Beltrami - Goodbye Mariko
    [02:25] 21. Marco Beltrami - Where To?
    [02:08] 22. Marco Beltrami - Whole Step Haiku

    Лог создания рипа

    Exact Audio Copy V1.0 beta 3 from 29. August 2011
    EAC extraction logfile from 11. September 2013, 13:58
    Marco Beltrami / The Wolverine Soundtrack
    Used drive : HL-DT-STDVDRAM GH24NS95 Adapter: 7 ID: 0
    Read mode : SecureUtilize accurate stream : YesDefeat audio cache : YesMake use of C2 pointers : No
    Read offset correction : 6Overread into Lead-In and Lead-Out : NoFill up missing offset samples with silence : YesDelete leading and trailing silent blocks : NoNull samples used in CRC calculations : YesUsed interface : Native Win32 interface for Win NT & 2000Gap handling : Appended to previous track
    Used output format : User Defined EncoderSelected bitrate : 1024 kBit/sQuality : HighAdd ID3 tag : NoCommand line compressor : C:\Program Files (x86)\Exact Audio Copy\Flac\flac.exeAdditional command line options : -8 -V -T "ARTIST=%artist%" -T "TITLE=%title%" -T "ALBUM=%albumtitle%" -T "DATE=%year%" -T "TRACKNUMBER=%tracknr%" -T "GENRE=%genre%" -T "PERFORMER=%albuminterpret%" -T "COMPOSER=%composer%" %haslyrics%--tag-from-file=LYRICS="%lyricsfile%"%haslyrics% -T "ALBUMARTIST=%albumartist%" -T "DISCNUMBER=%cdnumber%" -T "TOTALDISCS=%totalcds%" -T "TOTALTRACKS=%numtracks%" -T "COMMENT=%comment%" %source% -o %dest%
    TOC of the extracted CD
    Track | Start | Length | Start sector | End sector --------------------------------------------------------- 1 | 0:00.00 | 1:02.15 | 0 | 4664 2 | 1:02.15 | 1:15.11 | 4665 | 10300 3 | 2:17.26 | 1:36.36 | 10301 | 17536 4 | 3:53.62 | 3:56.04 | 17537 | 35240 5 | 7:49.66 | 3:15.02 | 35241 | 49867 6 | 11:04.68 | 2:09.73 | 49868 | 59615 7 | 13:14.66 | 4:22.57 | 59616 | 79322 8 | 17:37.48 | 4:04.27 | 79323 | 97649 9 | 21:42.00 | 1:31.36 | 97650 | 104510 10 | 23:13.36 | 1:32.64 | 104511 | 111474 11 | 24:46.25 | 2:11.38 | 111475 | 121337 12 | 26:57.63 | 1:54.34 | 121338 | 129921 13 | 28:52.22 | 3:40.41 | 129922 | 146462 14 | 32:32.63 | 3:50.10 | 146463 | 163722 15 | 36:22.73 | 2:21.47 | 163723 | 174344 16 | 38:44.45 | 5:02.04 | 174345 | 196998 17 | 43:46.49 | 3:27.44 | 196999 | 212567 18 | 47:14.18 | 4:32.12 | 212568 | 232979 19 | 51:46.30 | 1:21.50 | 232980 | 239104 20 | 53:08.05 | 1:01.09 | 239105 | 243688 21 | 54:09.14 | 2:25.21 | 243689 | 254584 22 | 56:34.35 | 2:08.11 | 254585 | 264195
    Track 1
    Filename D:\Incoming\Wolverine, The (2013, FLAC) - Marco Beltrami\01 - A Walk In The Woods.wav
    Pre-gap length 0:00:02.00
    Peak level 46.0 % Extraction speed 0.7 X Track quality 100.0 % Test CRC 7FDF8D0D Copy CRC 7FDF8D0D Accurately ripped (confidence 4) [A7E22272] (AR v2) Copy OK
    Track 2
    Filename D:\Incoming\Wolverine, The (2013, FLAC) - Marco Beltrami\02 - Threnody For Nagasaki.wav
    Peak level 99.9 % Extraction speed 0.9 X Track quality 100.0 % Test CRC 1FCF3943 Copy CRC 1FCF3943 Accurately ripped (confidence 4) [2AD784E0] (AR v2) Copy OK
    Track 3
    Filename D:\Incoming\Wolverine, The (2013, FLAC) - Marco Beltrami\03 - Euthanasia.wav
    Peak level 99.9 % Extraction speed 1.0 X Track quality 100.0 % Test CRC 2D7B739B Copy CRC 2D7B739B Accurately ripped (confidence 4) [91C2BE67] (AR v2) Copy OK
    Track 4
    Filename D:\Incoming\Wolverine, The (2013, FLAC) - Marco Beltrami\04 - Logan's Run.wav
    Peak level 99.9 % Extraction speed 1.1 X Track quality 99.9 % Test CRC FDE3B0E2 Copy CRC FDE3B0E2 Accurately ripped (confidence 4) [52AD6D9B] (AR v2) Copy OK
    Track 5
    Filename D:\Incoming\Wolverine, The (2013, FLAC) - Marco Beltrami\05 - The Offer.wav
    Peak level 56.1 % Extraction speed 1.3 X Track quality 100.0 % Test CRC F7520D50 Copy CRC F7520D50 Accurately ripped (confidence 4) [28DBDAED] (AR v2) Copy OK
    Track 6
    Filename D:\Incoming\Wolverine, The (2013, FLAC) - Marco Beltrami\06 - Arriving At The Temple.wav
    Peak level 80.2 % Extraction speed 1.3 X Track quality 100.0 % Test CRC C442B502 Copy CRC C442B502 Accurately ripped (confidence 4) [5F031134] (AR v2) Copy OK
    Track 7
    Filename D:\Incoming\Wolverine, The (2013, FLAC) - Marco Beltrami\07 - Funeral Fight.wav
    Peak level 99.9 % Extraction speed 1.5 X Track quality 100.0 % Test CRC 2A2A40A9 Copy CRC 2A2A40A9 Accurately ripped (confidence 4) [17CC1F06] (AR v2) Copy OK
    Track 8
    Filename D:\Incoming\Wolverine, The (2013, FLAC) - Marco Beltrami\08 - Two Handed.wav
    Peak level 91.7 % Extraction speed 1.4 X Track quality 99.9 % Test CRC 1262706A Copy CRC 1262706A Accurately ripped (confidence 4) [6026CA4A] (AR v2) Copy OK
    Track 9
    Filename D:\Incoming\Wolverine, The (2013, FLAC) - Marco Beltrami\09 - Bullet Train.wav
    Peak level 99.9 % Extraction speed 1.3 X Track quality 100.0 % Test CRC DDABFB43 Copy CRC DDABFB43 Accurately ripped (confidence 4) [D611FF69] (AR v2) Copy OK
    Track 10
    Filename D:\Incoming\Wolverine, The (2013, FLAC) - Marco Beltrami\10 - The Snare.wav
    Peak level 19.1 % Extraction speed 1.4 X Track quality 100.0 % Test CRC F00B03E3 Copy CRC F00B03E3 Accurately ripped (confidence 4) [120E6770] (AR v2) Copy OK
    Track 11
    Filename D:\Incoming\Wolverine, The (2013, FLAC) - Marco Beltrami\11 - Abduction.wav
    Peak level 97.9 % Extraction speed 1.5 X Track quality 100.0 % Test CRC CB0A349B Copy CRC CB0A349B Accurately ripped (confidence 4) [2682A2C5] (AR v2) Copy OK
    Track 12
    Filename D:\Incoming\Wolverine, The (2013, FLAC) - Marco Beltrami\12 - Trusting.wav
    Peak level 27.2 % Extraction speed 1.5 X Track quality 100.0 % Test CRC E0CE9DCA Copy CRC E0CE9DCA Accurately ripped (confidence 4) [A3C68F7A] (AR v2) Copy OK
    Track 13
    Filename D:\Incoming\Wolverine, The (2013, FLAC) - Marco Beltrami\13 - Ninja Quiet.wav
    Peak level 99.9 % Extraction speed 1.8 X Track quality 100.0 % Test CRC FCD6A0B8 Copy CRC FCD6A0B8 Accurately ripped (confidence 4) [EF6A667F] (AR v2) Copy OK
    Track 14
    Filename D:\Incoming\Wolverine, The (2013, FLAC) - Marco Beltrami\14 - Kantana Surgery.wav
    Peak level 99.9 % Extraction speed 1.9 X Track quality 100.0 % Test CRC 80AC04B0 Copy CRC 80AC04B0 Accurately ripped (confidence 4) [68244E4B] (AR v2) Copy OK
    Track 15
    Filename D:\Incoming\Wolverine, The (2013, FLAC) - Marco Beltrami\15 - The Wolverine.wav
    Peak level 99.9 % Extraction speed 1.7 X Track quality 100.0 % Test CRC C2B02A97 Copy CRC C2B02A97 Accurately ripped (confidence 4) [3DBEB5A2] (AR v2) Copy OK
    Track 16
    Filename D:\Incoming\Wolverine, The (2013, FLAC) - Marco Beltrami\16 - The Hidden Fortress.wav
    Peak level 99.9 % Extraction speed 2.0 X Track quality 100.0 % Test CRC 85141694 Copy CRC 85141694 Accurately ripped (confidence 4) [E7A38D75] (AR v2) Copy OK
    Track 17
    Filename D:\Incoming\Wolverine, The (2013, FLAC) - Marco Beltrami\17 - Silver Samurai.wav
    Peak level 99.9 % Extraction speed 2.0 X Track quality 100.0 % Test CRC 34697190 Copy CRC 34697190 Accurately ripped (confidence 4) [C815DADE] (AR v2) Copy OK
    Track 18
    Filename D:\Incoming\Wolverine, The (2013, FLAC) - Marco Beltrami\18 - Sword Of Vengeance.wav
    Peak level 99.9 % Extraction speed 2.1 X Track quality 100.0 % Test CRC 3998CE7E Copy CRC 3998CE7E Accurately ripped (confidence 4) [B65482B5] (AR v2) Copy OK
    Track 19
    Filename D:\Incoming\Wolverine, The (2013, FLAC) - Marco Beltrami\19 - Dreams.wav
    Peak level 42.1 % Extraction speed 1.3 X Track quality 99.8 % Test CRC DD8F1DA2 Copy CRC DD8F1DA2 Accurately ripped (confidence 4) [3A64F1EB] (AR v2) Copy OK
    Track 20
    Filename D:\Incoming\Wolverine, The (2013, FLAC) - Marco Beltrami\20 - Goodbye Mariko.wav
    Peak level 50.8 % Extraction speed 1.5 X Track quality 100.0 % Test CRC 4437621D Copy CRC 4437621D Accurately ripped (confidence 4) [BE57376A] (AR v2) Copy OK
    Track 21
    Filename D:\Incoming\Wolverine, The (2013, FLAC) - Marco Beltrami\21 - Where To.wav
    Peak level 99.9 % Extraction speed 2.0 X Track quality 100.0 % Test CRC C3353081 Copy CRC C3353081 Accurately ripped (confidence 4) [6939B9F8] (AR v2) Copy OK
    Track 22
    Filename D:\Incoming\Wolverine, The (2013, FLAC) - Marco Beltrami\22 - Whole Step Haiku.wav
    Peak level 22.3 % Extraction speed 1.6 X Track quality 99.9 % Test CRC FD3B2F44 Copy CRC FD3B2F44 Accurately ripped (confidence 4) [7BA6DC1C] (AR v2) Copy OK
    All tracks accurately ripped
    No errors occurred
    End of status report
    ---- CUETools DB Plugin V2.1.3
    [CTDB TOCID: q.JNeosn2282jIX6ptnHW8Pnrjg-] found, Submit result: already submitted[d9349bf9] (9/9) Accurately ripped
    ==== Log checksum F0846F768EC4D2DC726D767A96DB6B807FE6A46936EC7CDB140848BCDE6B2C42 ====

    Содержание индексной карты (.CUE)

    REM GENRE SoundtrackREM DATE 2013REM DISCID 430DC216REM COMMENT "ExactAudioCopy v1.0b3"CATALOG 0888837125420PERFORMER "Marco Beltrami"TITLE "The Wolverine Soundtrack"FILE "01 - A Walk In The Woods.wav" WAVE TRACK 01 AUDIO TITLE "A Walk In The Woods" PERFORMER "Marco Beltrami" ISRC USSM11303576 INDEX 01 00:00:00FILE "02 - Threnody For Nagasaki.wav" WAVE TRACK 02 AUDIO TITLE "Threnody For Nagasaki" PERFORMER "Marco Beltrami" ISRC USSM11303577 INDEX 01 00:00:00FILE "03 - Euthanasia.wav" WAVE TRACK 03 AUDIO TITLE "Euthanasia" PERFORMER "Marco Beltrami" ISRC USSM11303578 INDEX 01 00:00:00FILE "04 - Logan's Run.wav" WAVE TRACK 04 AUDIO TITLE "Logan's Run" PERFORMER "Marco Beltrami" ISRC USSM11303579 INDEX 01 00:00:00FILE "05 - The Offer.wav" WAVE TRACK 05 AUDIO TITLE "The Offer" PERFORMER "Marco Beltrami" ISRC USSM11303580 INDEX 01 00:00:00FILE "06 - Arriving At The Temple.wav" WAVE TRACK 06 AUDIO TITLE "Arriving At The Temple" PERFORMER "Marco Beltrami" ISRC USSM11303581 INDEX 01 00:00:00FILE "07 - Funeral Fight.wav" WAVE TRACK 07 AUDIO TITLE "Funeral Fight" PERFORMER "Marco Beltrami" ISRC USSM11303581 INDEX 01 00:00:00FILE "08 - Two Handed.wav" WAVE TRACK 08 AUDIO TITLE "Two Handed" PERFORMER "Marco Beltrami" ISRC USSM11303583 INDEX 01 00:00:00FILE "09 - Bullet Train.wav" WAVE TRACK 09 AUDIO TITLE "Bullet Train" PERFORMER "Marco Beltrami" ISRC USSM11303584 INDEX 01 00:00:00FILE "10 - The Snare.wav" WAVE TRACK 10 AUDIO TITLE "The Snare" PERFORMER "Marco Beltrami" ISRC USSM11303585 INDEX 01 00:00:00FILE "11 - Abduction.wav" WAVE TRACK 11 AUDIO TITLE "Abduction" PERFORMER "Marco Beltrami" ISRC USSM11303586 INDEX 01 00:00:00FILE "12 - Trusting.wav" WAVE TRACK 12 AUDIO TITLE "Trusting" PERFORMER "Marco Beltrami" ISRC USSM11303587 INDEX 01 00:00:00FILE "13 - Ninja Quiet.wav" WAVE TRACK 13 AUDIO TITLE "Ninja Quiet" PERFORMER "Marco Beltrami" ISRC USSM11303588 INDEX 01 00:00:00FILE "14 - Kantana Surgery.wav" WAVE TRACK 14 AUDIO TITLE "Kantana Surgery" PERFORMER "Marco Beltrami" ISRC USSM11303589 INDEX 01 00:00:00FILE "15 - The Wolverine.wav" WAVE TRACK 15 AUDIO TITLE "The Wolverine" PERFORMER "Marco Beltrami" ISRC USSM11303590 INDEX 01 00:00:00FILE "16 - The Hidden Fortress.wav" WAVE TRACK 16 AUDIO TITLE "The Hidden Fortress" PERFORMER "Marco Beltrami" ISRC USSM11303591 INDEX 01 00:00:00FILE "17 - Silver Samurai.wav" WAVE TRACK 17 AUDIO TITLE "Silver Samurai" PERFORMER "Marco Beltrami" ISRC USSM11303592 INDEX 01 00:00:00FILE "18 - Sword Of Vengeance.wav" WAVE TRACK 18 AUDIO TITLE "Sword Of Vengeance" PERFORMER "Marco Beltrami" ISRC USSM11303593 INDEX 01 00:00:00FILE "19 - Dreams.wav" WAVE TRACK 19 AUDIO TITLE "Dreams" PERFORMER "Marco Beltrami" ISRC USSM11303594 INDEX 01 00:00:00FILE "20 - Goodbye Mariko.wav" WAVE TRACK 20 AUDIO TITLE "Goodbye Mariko" PERFORMER "Marco Beltrami" ISRC USSM11303594 INDEX 01 00:00:00FILE "21 - Where To.wav" WAVE TRACK 21 AUDIO TITLE "Where To?" PERFORMER "Marco Beltrami" ISRC USSM11303596 INDEX 01 00:00:00FILE "22 - Whole Step Haiku.wav" WAVE TRACK 22 AUDIO TITLE "Whole Step Haiku" PERFORMER "Marco Beltrami" ISRC USSM11303597 INDEX 01 00:00:00
    Скачать .torrent

    Скачать торрент-файл бесплатно и на максимальной скорости!

    Как скачивать? · Что такое торрент? · Рейтинг и ограничения

    !ВНИМАНИЕ!
    Сайт не распространяет и не хранит электронные версии произведений, а занимается лишь лишь предоставлением доступа к создаваемому пользователями каталогу ссылок на торрент-файлы, которые содержат только списки хеш-сумм, убедительная просьба с жалобами обращаться напрямую к пользователю. Файлы для обмена на трекере предоставлены пользователями сайта, и администрация не несёт ответственности за их содержание. Просьба не заливать файлы, защищенные авторскими правами, а также файлы нелегального содержания!

    [Профиль] [ЛС]
    Показать сообщения:    
    Ответить на тему

    Текущее время: Сегодня, в 20:45

    Часовой пояс: GMT + 2



    Вы не можете начинать темы
    Вы не можете отвечать на сообщения
    Вы не можете редактировать свои сообщения
    Вы не можете удалять свои сообщения
    Вы не можете голосовать в опросах
    Вы не можете прикреплять файлы к сообщениям
    Вы не можете скачивать файлы