BitTorrentTracker PerecTracker.org
BitTorrentTracker PerecTracker.org
    
Регистрация  ·  Вход
 
 · 
Забыли пароль?

  • Исчезновение / Disparue / Сезон: 1 / Серии: 1-8 из 8 (Шарлотта Брэндстром) [2015, драма, детектив, WEB-DLRip] MVO (Первый канал)

    Ответить на тему
     
    Автор Сообщение

    rechyn

    Создавать темы 07-Апр-2016 10:16

           

    [Цитировать]

    Исчезновение / Disparue
    Год выпуска: 2015
    Страна: Франция, Телеканал «FRANCE 2»
    Жанр: драма, детектив
    Продолжительность: ~ 00:50:00
    Перевод: Профессиональный (многоголосый закадровый) | Эй Би Видео по заказу Первого канала
    Режиссёр: Шарлотта Брэндстром
    В ролях: Франсуа-Ксавье Демэйсон, Пьер-Франсуа Мартен-Лаваль, Аликс Пуассона, Алиса Поль, Лоран Бато, Тефанель Максиме, Камиль Раззат, Зои Мюриэль Маршаль
    Описание: Семнадцатилетняя Лия Морель и ее двоюродная сестра Крис отправились на городской праздник музыки, который проходит в Лионе 21 июня. После праздника Лия не вернулась домой. Полицейское расследование ее исчезновения ведут комиссар Молина и его молодая помощница Камилла Герэн. Параллельно зрители наблюдают, как семья Морель справляется со своим горем. Отец пытается самостоятельно выяснить, что случилось с дочерью. Мать поддерживает младшую дочку, а старший брат Лии мучается от чувства вины, ведь он должен был проводить сестру, но не сделал этого.
    Ссылка на предыдущие и альтернативные раздачи
    Семпл
    Качество: WEB-DLRip
    Формат: AVI
    Видео: 720x400 (1.80:1), 25 fps, XviD build 50 ~1681 kbps avg, 0.23 bit/pixel
    Аудио: 48.000 kHz, АС3 Dolby Digital, 2 ch, ~192.00 kbps avg
    Субтитры: отсутствуют

    MediaInfo

    Общее
    Полное имя : D:\TORRENT\Disparue.2015.S01.WEB-DLRip\Disparue.2015.S01.(01.seriya).WEB-DLRip.avi
    Формат : AVI
    Формат/Информация : Audio Video Interleave
    Размер файла : 700 Мбайт
    Продолжительность : 51 м.
    Общий поток : 1884 Кбит/сек
    Программа кодирования : VirtualDubMod 1.5.10.2 (build 2540/release)
    Библиотека кодирования : VirtualDubMod build 2540/release
    Видео
    Идентификатор : 0
    Формат : MPEG-4 Visual
    Профиль формата : Advanced Simple@L5
    Параметр BVOP формата : 1
    Параметр QPel формата : Нет
    Параметр GMC формата : Без точки перехода
    Параметр матрицы формата : Выборочная
    Идентификатор кодека : XVID
    Идентификатор кодека/Подсказка : XviD
    Продолжительность : 51 м.
    Битрейт : 1682 Кбит/сек
    Ширина : 720 пикселей
    Высота : 400 пикселей
    Соотношение сторон : 16:9
    Частота кадров : 25,000 кадров/сек
    Цветовое пространство : YUV
    Субдискретизация насыщенности : 4:2:0
    Битовая глубина : 8 бит
    Тип развёртки : Прогрессивная
    Метод сжатия : С потерями
    Бит/(Пиксели*Кадры) : 0.234
    Размер потока : 625 Мбайт (89%)
    Библиотека кодирования : XviD 1.2.1 (UTC 2008-12-04)
    Аудио
    Идентификатор : 1
    Формат : AC-3
    Формат/Информация : Audio Coding 3
    Расширение режима : CM (complete main)
    Параметр Endianness формата : Big
    Идентификатор кодека : 2000
    Продолжительность : 51 м.
    Вид битрейта : Постоянный
    Битрейт : 192 Кбит/сек
    Каналы : 2 канала
    Расположение каналов : Front: L R
    Частота : 48,0 КГц
    Метод сжатия : С потерями
    Размер потока : 71,3 Мбайт (10%)
    Выравнивание : Разделение по промежуткам
    Продолжительность промежутка : 40 мс. (1,00 видеокадр)
    Время предзагрузки промежутка : 500 мс.

    Скриншоты

    Скачать .torrent

    Скачать торрент-файл бесплатно и на максимальной скорости!

    Как скачивать? · Что такое торрент? · Рейтинг и ограничения

    !ВНИМАНИЕ!
    Сайт не распространяет и не хранит электронные версии произведений, а занимается лишь лишь предоставлением доступа к создаваемому пользователями каталогу ссылок на торрент-файлы, которые содержат только списки хеш-сумм, убедительная просьба с жалобами обращаться напрямую к пользователю. Файлы для обмена на трекере предоставлены пользователями сайта, и администрация не несёт ответственности за их содержание. Просьба не заливать файлы, защищенные авторскими правами, а также файлы нелегального содержания!


    _________________
    [Профиль] [ЛС]
    Показать сообщения:    
    Ответить на тему

    Текущее время: Сегодня, в 00:24

    Часовой пояс: GMT + 2



    Вы не можете начинать темы
    Вы не можете отвечать на сообщения
    Вы не можете редактировать свои сообщения
    Вы не можете удалять свои сообщения
    Вы не можете голосовать в опросах
    Вы не можете прикреплять файлы к сообщениям
    Вы не можете скачивать файлы