BitTorrentTracker PerecTracker.org
BitTorrentTracker PerecTracker.org
    
Регистрация  ·  Вход
 
 · 
Забыли пароль?

  • Лунный папа / Luna Papa / Moon Father (Бахтиёр (Бахтияр) Худойназаров / Bakhtyar Khudojnazarov) [1999, Австрия, Германия, Россия, Таджикистан, Узбекистан, Франция, Швейцария, Япония, драма, комедия, DVDRip] Original Rus

    Ответить на тему
     
    Автор Сообщение

    Flirldrerve

    Создавать темы 06-Апр-2016 21:00

           

    [Цитировать]

    Лунный папа / Luna Papa / Moon FatherСтрана: Австрия, Германия, Россия, Таджикистан, Узбекистан, Франция, Швейцария, Япония
    Жанр: драма, комедия
    Год выпуска: 1999
    Продолжительность: 01:44:46
    Перевод: не требуется
    Cубтитры: нет
    Оригинальная аудиодорожка: русский
    Режиссер: Бахтиёр (Бахтияр) Худойназаров / Bakhtyar Khudojnazarov
    В ролях: Чулпан Хаматова, Мориц Бляйбтрой, Николай Фоменко, Ато Мухамеджанов, Мераб Нинидзе, Аловуддин Абдуллаев, Фируз Сабзалиев, Лола Мирзорахимова, Шерали Абдулкайсов, Димаш Ахимов
    Описание: Далеко-далеко, в одной жаркой восточной стране, на берегу моря, в шумном и пестром поселке жила девушка Мамлакат. Она очень любила своего отца и несчастного брата, потерявшего на войне рассудок. Но больше всего на свете она любила театр. Ей казалось, что актеры - самые необыкновенные люди на свете.
    Однажды, лунной ночью, она встретила отца своего будущего ребенка - он назвался актером заезжего театра. И вот Мамлакат беременна, ее отец и брат в отчаянии. Чтобы избежать позора, все семейство отправляется на поиски незадачливого "лунного" папаши...
    Доп. информация:

    Рип: waarheid
    Сэмпл:

    Качество видео: DVDRip [Исходник: DVD9 Arthaus (R2), 2001]
    Формат видео: AVI
    Видео: 704x400 (1.76:1), 25 fps, XviD build 73 ~1540 kbps avg, 0.22 bit/pixel
    Аудио: 48 kHz, AC3 Dolby Digital, 3/2 (L,C,R,l,r) + LFE ch, ~448 kbps [Russian, Original]

    MediaInfo

    Общее
    Полное имя : Лунный папа.1999_DVDRip_by_waarheid.avi
    Формат : AVI
    Формат/Информация : Audio Video Interleave
    Размер файла : 1,46 Гбайт
    Продолжительность : 1 ч. 44 м.
    Общий поток : 1999 Кбит/сек
    Программа кодирования : VirtualDubMod 1.5.10.3 | www.virtualdub-fr.org || (build 2550/release)
    Видео
    Идентификатор : 0
    Формат : MPEG-4 Visual
    Профиль формата : Advanced Simple@L5
    Параметр BVOP формата : 2
    Параметр QPel формата : Нет
    Параметр GMC формата : Без точки перехода
    Параметр матрицы формата : Выборочная
    Идентификатор кодека : XVID
    Идентификатор кодека/Подсказка : XviD
    Продолжительность : 1 ч. 44 м.
    Битрейт : 1541 Кбит/сек
    Ширина : 704 пикселя
    Высота : 400 пикселей
    Соотношение сторон : 16:9
    Частота кадров : 25,000 кадров/сек
    Цветовое пространство : YUV
    Субдискретизация насыщенности : 4:2:0
    Битовая глубина : 8 бит
    Тип развёртки : Прогрессивная
    Метод сжатия : С потерями
    Бит/(Пиксели*Кадры) : 0.219
    Размер потока : 1,13 Гбайт (77%)
    Библиотека кодирования : XviD 73
    Аудио
    Идентификатор : 1
    Формат : AC-3
    Формат/Информация : Audio Coding 3
    Расширение режима : CM (complete main)
    Параметр Endianness формата : Big
    Идентификатор кодека : 2000
    Продолжительность : 1 ч. 44 м.
    Вид битрейта : Постоянный
    Битрейт : 448 Кбит/сек
    Каналы : 6 каналов
    Расположение каналов : Front: L C R, Side: L R, LFE
    Частота : 48,0 КГц
    Частота кадров : 31,250 кадров/сек (1536 spf)
    Метод сжатия : С потерями
    Размер потока : 336 Мбайт (22%)
    Выравнивание : Разделение по промежуткам
    Продолжительность промежутка : 40 мс. (1,00 видеокадр)
    Время предзагрузки промежутка : 500 мс.

    Скриншот c названием фильма

    Скриншоты

    Скачать .torrent

    Скачать торрент-файл бесплатно и на максимальной скорости!

    Как скачивать? · Что такое торрент? · Рейтинг и ограничения

    !ВНИМАНИЕ!
    Сайт не распространяет и не хранит электронные версии произведений, а занимается лишь лишь предоставлением доступа к создаваемому пользователями каталогу ссылок на торрент-файлы, которые содержат только списки хеш-сумм, убедительная просьба с жалобами обращаться напрямую к пользователю. Файлы для обмена на трекере предоставлены пользователями сайта, и администрация не несёт ответственности за их содержание. Просьба не заливать файлы, защищенные авторскими правами, а также файлы нелегального содержания!


    _________________
    [Профиль] [ЛС]
    Показать сообщения:    
    Ответить на тему

    Текущее время: Сегодня, в 00:10

    Часовой пояс: GMT + 2



    Вы не можете начинать темы
    Вы не можете отвечать на сообщения
    Вы не можете редактировать свои сообщения
    Вы не можете удалять свои сообщения
    Вы не можете голосовать в опросах
    Вы не можете прикреплять файлы к сообщениям
    Вы не можете скачивать файлы