BitTorrentTracker PerecTracker.org
BitTorrentTracker PerecTracker.org
    
Регистрация  ·  Вход
 
 · 
Забыли пароль?

  • Основной инстинкт / Basic Instinct (Пол Верховен / Paul Verhoeven) [1992, Франция, США, триллер, драма, детектив, BDRemux 1080p] 2x MVO + 2x DVO + 6x AVO + VO + Ukr MVO + Original Eng + 2x Comments + Sub Rus, Eng

    Ответить на тему
     
    Автор Сообщение

    Light

    Создавать темы 06-Апр-2016 21:00

           

    [Цитировать]

    Основной инстинкт / Basic Instinct
    «Flesh seduces. Passion kills»
    -Страна: Франция, США
    Студии: Canal+ [fr], Carolco Pictures Inc.
    Жанр: триллер, драма, детектив
    Год выпуска: 1992
    Продолжительность: 02:08:15
    Перевод 1: Профессиональный (многоголосый закадровый) CP-Digital
    Перевод 2: Профессиональный (многоголосый закадровый) НТВ
    Перевод 3: Профессиональный (двухголосый закадровый) ОРТ
    Перевод 4: Профессиональный (двухголосый закадровый) Премьер Видео фильм
    Перевод 5: Авторский (одноголосый закадровый) А. Ю. Гаврилов
    Перевод 6: Авторский (одноголосый закадровый) Ю. В. Живов
    Перевод 7: Одноголосый (закадровый) А. Матвеев
    Перевод 8: Авторский (одноголосый закадровый) Ю. Сербин
    Перевод 9: Авторский (одноголосый закадровый) В. Горчаков (ранний)
    Перевод 10: Авторский (одноголосый закадровый) В. Горчаков (поздний)
    Перевод 11: Авторский (одноголосый закадровый) Г. Либергал
    Перевод 12: Украинский (многоголосый закадровый) КІНО
    Cубтитры: русские (full BD+full CP-Digital+full MartinaG) + английские (full)
    Оригинальная аудиодорожка: английский
    Комментарии 1: английский (комментарии режиссёра Пола Верховена)
    Комментарии 2: английский (комментарии профессора Академии Искусств Филадельфии)
    Режиссёр: Пол Верховен / Paul Verhoeven
    В ролях: Майкл Дуглас, Шэрон Стоун, Джордж Дзундза, Джинн Трипплхорн, Дэнис Арндт, Лейлани Сарелл, Брюс А. Янг, Челси Росс, Дороти Мэлоун, Уэйн Найт.
    Описание: Детектив Ник Каррен ведет расследование по делу об извращенном убийстве на сексуальной почве. Подозрение падает на подругу убитого Кэтрин — писательницу, автора шокирующих романов, которая в своей последней книге подробно описала абсолютно аналогичное преступление.
    Но обворожительная, неимоверно сексуальная писательница, обладает удивительной способностью манипулировать мужчинами, пробудив в них один из самых основных инстинктов.-Рейтинг
    imdb.com: 6.90 (130 484)
    kinopoisk.ru: 7.732 (40 599)
    MPAA: - лицам до 17 лет обязательно присутствие взрослого-Сэмплы:
    http://sendfile.su/1221223
    http://rusfolder.com/44899029-Тип релиза: BDRemux 1080p
    Контейнер: MKV
    Видео: H.264/AVC, 1920x1080 (16:9), 23.976 fps, ~17588 kbps
    Аудио 1: AC3 Dolby Digital, 3/2 (L,C,R,l,r) + LFE ch / 48 kHz / 16-bit / 448 kbps (MVO CP-Digital)
    Аудио 2: AC3 Dolby Digital, 2/0 (L,R) ch / 48 kHz / 16-bit / 192 kbps (MVO НТВ)
    Аудио 3: AC3 Dolby Digital, 2/0 (L,R) ch / 48 kHz / 16-bit / 192 kbps (DVO ОРТ)
    Аудио 4: AC3 Dolby Digital, 2/0 (L,R) ch / 48 kHz / 16-bit / 192 kbps (DVO Премьер Видео)
    Аудио 5: DTS-HD MA, 5.1 / 48 kHz / 16-bit / 2019 kbps (DTS Core: 5.1 / 48 kHz / 16-bit /1509 kbps) (AVO Гаврилов)
    Аудио 6: DTS-HD MA, 5.1 / 48 kHz / 16-bit / 2018 kbps (DTS Core: 5.1 / 48 kHz / 16-bit /1509 kbps) (AVO Живов)
    Аудио 7: DTS-HD MA, 5.1 / 48 kHz / 16-bit / 2016 kbps (DTS Core: 5.1 / 48 kHz / 16-bit /1509 kbps) (VO Матвеев)
    Аудио 8: AC3 Dolby Digital, 3/2 (L,C,R,l,r) + LFE ch / 48 kHz / 16-bit / 448 kbps (AVO Сербин)
    Аудио 9: AC3 Dolby Digital, 2/0 (L,R) ch / 48 kHz / 16-bit / 192 kbps (AVO Горчаков ранний)
    Аудио 10: AC3 Dolby Digital, 2/0 (L,R) ch / 48 kHz / 16-bit / 192 kbps (AVO Горчаков поздний)
    Аудио 11: AC3 Dolby Digital, 2/0 (L,R) ch / 48 kHz / 16-bit / 192 kbps (AVO Либергал)
    Аудио 12: AC3 Dolby Digital, 3/2 (L,C,R,l,r) + LFE ch / 48 kHz / 16-bit / 448 kbps (Ukr MVO КІНО)
    Аудио 13: DTS-HD MA, 5.1 / 48 kHz / 16-bit / 1989 kbps (DTS Core: 5.1 / 48 kHz / 24-bit /1509 kbps) (Eng Original)
    Аудио 14: AC3 Dolby Digital, 2/0 (L,R) ch / 48 kHz / 16-bit / 192 kbps (Eng Comments Paul Verhoeven)
    Аудио 15: AC3 Dolby Digital, 2/0 (L,R) ch / 48 kHz / 16-bit / 192 kbps (Eng Comments Professor)
    Формат субтитров: softsub (SRT)
    -

    Благодарность

    За исходные материалы спасибо Hdclub:
    Skazhutin, delia.

    MediaInfo

    Общее
    Уникальный идентификатор : 253932097859487504039768824676470684843 (0xBF098B09504E3DC2B7F54A4B11D2FCAB)
    Полное имя : D:\Basic.Instinct.1992.MPEG-4-AVC.BluRay-Remux.1080p.mkv
    Формат : Matroska
    Версия формата : Version 2
    Размер файла : 25,6 Гбайт
    Продолжительность : 2 ч. 8 м.
    Режим общего битрейта : Переменный
    Общий поток : 28,5 Мбит/сек
    Название фильма : Basic Instinct 1992
    Дата кодирования : UTC 2016-03-21 08:23:49
    Программа кодирования : mkvmerge v5.0.1 ('Es ist Sommer') built on Oct 9 2011 11:55:43
    Библиотека кодирования : libebml v1.2.2 + libmatroska v1.3.0
    Attachements : cover.jpg
    Видео
    Идентификатор : 1
    Формат : AVC
    Формат/Информация : Advanced Video Codec
    Профиль формата : High@L4.1
    Параметр CABAC формата : Да
    Параметр ReFrames формата : 4 кадра
    Идентификатор кодека : V_MPEG4/ISO/AVC
    Продолжительность : 2 ч. 8 м.
    Вид битрейта : Переменный
    Максимальный битрейт : 39,0 Мбит/сек
    Ширина : 1920 пикселей
    Высота : 1080 пикселей
    Соотношение сторон : 16:9
    Режим частоты кадров : Постоянный
    Частота кадров : 23,976 кадра/сек
    Стандарт вещания : NTSC
    Цветовое пространство : YUV
    Субдискретизация насыщенности : 4:2:0
    Битовая глубина : 8 бит
    Тип развёртки : Прогрессивная
    Заголовок : Basic.Instinct.1992.MPEG-4-AVC.1080p
    Язык : English
    Default : Да
    Forced : Нет
    Основные цвета : BT.709
    Характеристики трансфера : BT.709
    Коэффициенты матрицы : BT.709
    Аудио #1
    Идентификатор : 2
    Формат : AC-3
    Формат/Информация : Audio Coding 3
    Расширение режима : CM (complete main)
    Параметр Endianness формата : Big
    Идентификатор кодека : A_AC3
    Продолжительность : 2 ч. 8 м.
    Вид битрейта : Постоянный
    Битрейт : 448 Кбит/сек
    Каналы : 6 каналов
    Расположение каналов : Front: L C R, Side: L R, LFE
    Частота : 48,0 КГц
    Битовая глубина : 16 бит
    Метод сжатия : С потерями
    Размер потока : 411 Мбайт (2%)
    Заголовок : MVO CP-Digital, AC3 5.1 @ 448 kbps
    Язык : Russian
    Default : Да
    Forced : Нет
    Аудио #2
    Идентификатор : 3
    Формат : AC-3
    Формат/Информация : Audio Coding 3
    Расширение режима : CM (complete main)
    Параметр Endianness формата : Big
    Идентификатор кодека : A_AC3
    Продолжительность : 2 ч. 8 м.
    Вид битрейта : Постоянный
    Битрейт : 192 Кбит/сек
    Каналы : 2 канала
    Расположение каналов : Front: L R
    Частота : 48,0 КГц
    Битовая глубина : 16 бит
    Метод сжатия : С потерями
    Размер потока : 176 Мбайт (1%)
    Заголовок : MVO НТВ, AC3 2.0 @ 192 kbps
    Язык : Russian
    Default : Нет
    Forced : Нет
    Аудио #3
    Идентификатор : 4
    Формат : AC-3
    Формат/Информация : Audio Coding 3
    Расширение режима : CM (complete main)
    Параметр Endianness формата : Big
    Идентификатор кодека : A_AC3
    Продолжительность : 2 ч. 8 м.
    Вид битрейта : Постоянный
    Битрейт : 192 Кбит/сек
    Каналы : 2 канала
    Расположение каналов : Front: L R
    Частота : 48,0 КГц
    Битовая глубина : 16 бит
    Метод сжатия : С потерями
    Размер потока : 176 Мбайт (1%)
    Заголовок : DVO ОРТ, AC3 2.0 @ 192 kbps
    Язык : Russian
    Default : Нет
    Forced : Нет
    Аудио #4
    Идентификатор : 5
    Формат : AC-3
    Формат/Информация : Audio Coding 3
    Расширение режима : CM (complete main)
    Параметр Endianness формата : Big
    Идентификатор кодека : A_AC3
    Продолжительность : 2 ч. 8 м.
    Вид битрейта : Постоянный
    Битрейт : 192 Кбит/сек
    Каналы : 2 канала
    Расположение каналов : Front: L R
    Частота : 48,0 КГц
    Битовая глубина : 16 бит
    Метод сжатия : С потерями
    Размер потока : 176 Мбайт (1%)
    Заголовок : DVO Премьер Видео фильм, AC3 2.0 @ 192 kbps
    Язык : Russian
    Default : Нет
    Forced : Нет
    Аудио #5
    Идентификатор : 6
    Формат : DTS
    Формат/Информация : Digital Theater Systems
    Профиль формата : MA / Core
    Режим : 16
    Параметр Endianness формата : Big
    Идентификатор кодека : A_DTS
    Продолжительность : 2 ч. 8 м.
    Вид битрейта : Переменный
    Битрейт : Неизвестно / 1509 Кбит/сек
    Каналы : 6 каналов
    Расположение каналов : Front: L C R, Side: L R, LFE
    Частота : 48,0 КГц
    Битовая глубина : 16 бит
    Метод сжатия : Без потерь / Lossy
    Заголовок : AVO Гаврилов DTS-HD MA 5.1 @ 2019 kbps
    Язык : Russian
    Default : Нет
    Forced : Нет
    Аудио #6
    Идентификатор : 7
    Формат : DTS
    Формат/Информация : Digital Theater Systems
    Профиль формата : MA / Core
    Режим : 16
    Параметр Endianness формата : Big
    Идентификатор кодека : A_DTS
    Продолжительность : 2 ч. 8 м.
    Вид битрейта : Переменный
    Битрейт : Неизвестно / 1509 Кбит/сек
    Каналы : 6 каналов
    Расположение каналов : Front: L C R, Side: L R, LFE
    Частота : 48,0 КГц
    Битовая глубина : 16 бит
    Метод сжатия : Без потерь / Lossy
    Заголовок : AVO Живов DTS-HD MA 5.1 @ 2018 kbps
    Язык : Russian
    Default : Нет
    Forced : Нет
    Аудио #7
    Идентификатор : 8
    Формат : DTS
    Формат/Информация : Digital Theater Systems
    Профиль формата : MA / Core
    Режим : 16
    Параметр Endianness формата : Big
    Идентификатор кодека : A_DTS
    Продолжительность : 2 ч. 8 м.
    Вид битрейта : Переменный
    Битрейт : Неизвестно / 1509 Кбит/сек
    Каналы : 6 каналов
    Расположение каналов : Front: L C R, Side: L R, LFE
    Частота : 48,0 КГц
    Битовая глубина : 16 бит
    Метод сжатия : Без потерь / Lossy
    Заголовок : VO Матвеев DTS-HD MA 5.1 @ 2016 kbps
    Язык : Russian
    Default : Нет
    Forced : Нет
    Аудио #8
    Идентификатор : 9
    Формат : AC-3
    Формат/Информация : Audio Coding 3
    Расширение режима : CM (complete main)
    Параметр Endianness формата : Big
    Идентификатор кодека : A_AC3
    Продолжительность : 2 ч. 8 м.
    Вид битрейта : Постоянный
    Битрейт : 448 Кбит/сек
    Каналы : 6 каналов
    Расположение каналов : Front: L C R, Side: L R, LFE
    Частота : 48,0 КГц
    Битовая глубина : 16 бит
    Метод сжатия : С потерями
    Размер потока : 411 Мбайт (2%)
    Заголовок : AVO Сербин, AC3 5.1 @ 448 kbps
    Язык : Russian
    Default : Нет
    Forced : Нет
    Аудио #9
    Идентификатор : 10
    Формат : AC-3
    Формат/Информация : Audio Coding 3
    Расширение режима : CM (complete main)
    Параметр Endianness формата : Big
    Идентификатор кодека : A_AC3
    Продолжительность : 2 ч. 8 м.
    Вид битрейта : Постоянный
    Битрейт : 192 Кбит/сек
    Каналы : 2 канала
    Расположение каналов : Front: L R
    Частота : 48,0 КГц
    Битовая глубина : 16 бит
    Метод сжатия : С потерями
    Размер потока : 176 Мбайт (1%)
    Заголовок : AVO Горчаков (ранний), AC3 2.0 @ 192 kbps
    Язык : Russian
    Default : Нет
    Forced : Нет
    Аудио #10
    Идентификатор : 11
    Формат : AC-3
    Формат/Информация : Audio Coding 3
    Расширение режима : CM (complete main)
    Параметр Endianness формата : Big
    Идентификатор кодека : A_AC3
    Продолжительность : 2 ч. 8 м.
    Вид битрейта : Постоянный
    Битрейт : 192 Кбит/сек
    Каналы : 2 канала
    Расположение каналов : Front: L R
    Частота : 48,0 КГц
    Битовая глубина : 16 бит
    Метод сжатия : С потерями
    Размер потока : 176 Мбайт (1%)
    Заголовок : AVO Горчаков (поздний), AC3 2.0 @ 192 kbps
    Язык : Russian
    Default : Нет
    Forced : Нет
    Аудио #11
    Идентификатор : 12
    Формат : AC-3
    Формат/Информация : Audio Coding 3
    Расширение режима : CM (complete main)
    Параметр Endianness формата : Big
    Идентификатор кодека : A_AC3
    Продолжительность : 2 ч. 8 м.
    Вид битрейта : Постоянный
    Битрейт : 192 Кбит/сек
    Каналы : 2 канала
    Расположение каналов : Front: L R
    Частота : 48,0 КГц
    Битовая глубина : 16 бит
    Метод сжатия : С потерями
    Размер потока : 176 Мбайт (1%)
    Заголовок : AVO Либергал, AC3 2.0 @ 192 kbps
    Язык : Russian
    Default : Нет
    Forced : Нет
    Аудио #12
    Идентификатор : 13
    Формат : AC-3
    Формат/Информация : Audio Coding 3
    Расширение режима : CM (complete main)
    Параметр Endianness формата : Big
    Идентификатор кодека : A_AC3
    Продолжительность : 2 ч. 8 м.
    Вид битрейта : Постоянный
    Битрейт : 448 Кбит/сек
    Каналы : 6 каналов
    Расположение каналов : Front: L C R, Side: L R, LFE
    Частота : 48,0 КГц
    Битовая глубина : 16 бит
    Метод сжатия : С потерями
    Размер потока : 411 Мбайт (2%)
    Заголовок : MVO КІНО, AC3 5.1 @ 448 kbps
    Язык : Ukrainian
    Default : Нет
    Forced : Нет
    Аудио #13
    Идентификатор : 14
    Формат : DTS
    Формат/Информация : Digital Theater Systems
    Профиль формата : MA / Core
    Режим : 16
    Параметр Endianness формата : Big
    Идентификатор кодека : A_DTS
    Продолжительность : 2 ч. 8 м.
    Вид битрейта : Переменный
    Битрейт : Неизвестно / 1509 Кбит/сек
    Каналы : 6 каналов
    Расположение каналов : Front: L C R, Side: L R, LFE
    Частота : 48,0 КГц
    Битовая глубина : 16 бит
    Метод сжатия : Без потерь / Lossy
    Заголовок : Original DTS-HD MA 5.1 @ 1989 kbps
    Язык : English
    Default : Нет
    Forced : Нет
    Аудио #14
    Идентификатор : 15
    Формат : AC-3
    Формат/Информация : Audio Coding 3
    Профиль формата : Dolby Digital
    Расширение режима : CM (complete main)
    Параметр Endianness формата : Big
    Идентификатор кодека : A_AC3
    Продолжительность : 2 ч. 8 м.
    Вид битрейта : Постоянный
    Битрейт : 192 Кбит/сек
    Каналы : 2 канала
    Расположение каналов : Front: L R
    Частота : 48,0 КГц
    Битовая глубина : 16 бит
    Метод сжатия : С потерями
    Размер потока : 176 Мбайт (1%)
    Заголовок : Комментарии режиссёра Пола Верховена, AC3 2.0 @ 192 kbps
    Язык : English
    Default : Нет
    Forced : Нет
    Аудио #15
    Идентификатор : 16
    Формат : AC-3
    Формат/Информация : Audio Coding 3
    Профиль формата : Dolby Digital
    Расширение режима : CM (complete main)
    Параметр Endianness формата : Big
    Идентификатор кодека : A_AC3
    Продолжительность : 2 ч. 8 м.
    Вид битрейта : Постоянный
    Битрейт : 192 Кбит/сек
    Каналы : 2 канала
    Расположение каналов : Front: L R
    Частота : 48,0 КГц
    Битовая глубина : 16 бит
    Метод сжатия : С потерями
    Размер потока : 176 Мбайт (1%)
    Заголовок : Комментарии профессора Академии Искусств Филадельфии, AC3 2.0 @ 192 kbps
    Язык : English
    Default : Нет
    Forced : Нет
    Текст #1
    Идентификатор : 17
    Формат : UTF-8
    Идентификатор кодека : S_TEXT/UTF8
    Идентификатор кодека/Информация : UTF-8 Plain Text
    Заголовок : Full BD EUR
    Язык : Russian
    Default : Нет
    Forced : Нет
    Текст #2
    Идентификатор : 18
    Формат : UTF-8
    Идентификатор кодека : S_TEXT/UTF8
    Идентификатор кодека/Информация : UTF-8 Plain Text
    Заголовок : Full CP-Digital
    Язык : Russian
    Default : Нет
    Forced : Нет
    Текст #3
    Идентификатор : 19
    Формат : UTF-8
    Идентификатор кодека : S_TEXT/UTF8
    Идентификатор кодека/Информация : UTF-8 Plain Text
    Заголовок : Full MartinaG
    Язык : Russian
    Default : Нет
    Forced : Нет
    Текст #4
    Идентификатор : 20
    Формат : UTF-8
    Идентификатор кодека : S_TEXT/UTF8
    Идентификатор кодека/Информация : UTF-8 Plain Text
    Заголовок : Full
    Язык : English
    Default : Нет
    Forced : Нет
    Меню
    00:00:00.000 : en:00:00:00.000
    00:07:21.823 : en:00:07:21.823
    00:13:25.270 : en:00:13:25.270
    00:21:00.975 : en:00:21:00.975
    00:30:38.886 : en:00:30:38.886
    00:40:04.075 : en:00:40:04.075
    00:45:18.014 : en:00:45:18.014
    00:51:32.888 : en:00:51:32.888
    01:02:08.523 : en:01:02:08.523
    01:11:35.590 : en:01:11:35.590
    01:20:45.890 : en:01:20:45.890
    01:30:38.065 : en:01:30:38.065
    01:34:23.081 : en:01:34:23.081
    01:41:37.306 : en:01:41:37.306
    01:48:12.159 : en:01:48:12.159
    01:50:21.455 : en:01:50:21.455

    Скриншоты

    Скачать .torrent

    Скачать торрент-файл бесплатно и на максимальной скорости!

    Как скачивать? · Что такое торрент? · Рейтинг и ограничения

    !ВНИМАНИЕ!
    Сайт не распространяет и не хранит электронные версии произведений, а занимается лишь лишь предоставлением доступа к создаваемому пользователями каталогу ссылок на торрент-файлы, которые содержат только списки хеш-сумм, убедительная просьба с жалобами обращаться напрямую к пользователю. Файлы для обмена на трекере предоставлены пользователями сайта, и администрация не несёт ответственности за их содержание. Просьба не заливать файлы, защищенные авторскими правами, а также файлы нелегального содержания!


    _________________
    [Профиль] [ЛС]
    Показать сообщения:    
    Ответить на тему

    Текущее время: Сегодня, в 00:22

    Часовой пояс: GMT + 2



    Вы не можете начинать темы
    Вы не можете отвечать на сообщения
    Вы не можете редактировать свои сообщения
    Вы не можете удалять свои сообщения
    Вы не можете голосовать в опросах
    Вы не можете прикреплять файлы к сообщениям
    Вы не можете скачивать файлы