BitTorrentTracker PerecTracker.org
BitTorrentTracker PerecTracker.org
    
Регистрация  ·  Вход
 
 · 
Забыли пароль?

  • И грянул шторм / The Finest Hours ( Крэйг Гиллеспи / Craig Gillespie) [2016, США, Боевик, триллер, драма, история, WEB-DLRip] Dub (TS)

    Ответить на тему
     
    Автор Сообщение

    rechyn

    Создавать темы 06-Апр-2016 21:00

           

    [Цитировать]

    И грянул шторм / The Finest Hours
    Страна: США
    Жанр: Боевик, триллер, драма, история
    Год выпуска: 2016
    Продолжительность: 01:57:17
    Перевод: Профессиональный (дублированный) TS
    Cубтитры: нет
    Оригинальная аудиодорожка: нет
    Режиссер: Крэйг Гиллеспи / Craig Gillespie
    В ролях: Крис Пайн, Кейси Аффлек, Бен Фостер, Эрик Бана, Холлидей Грейнджер, Джон Ортис, Кайл Галлнер, Джон Магаро, Грэм МакТавиш, Майкл Рэймонд-Джеймс, Бо Напп, Джош Стюарт, Абрахам Бенруби, Кейнан Лонсдейл, Рэйчел Броснахэн, Бенжамин Колдык, Мэттью Мехер, Джесси Габбар, Александр Кук, Дэнни КоннеллиВнимание:
    Раздача представлена чисто для ознакомления с фильмом. Как только появится лицензия, рип будет заменен на качественный.
    Описание: 18 февраля 1952 года на побережье Новой Англии обрушился сильнейший ураган. Танкер «Пендлтон», направлявшийся в Бостон, был буквально разорван на две части и тридцать два моряка оказались пойманными в ловушку на тонущем судне. Старший ассистент инженера Рэй Сайберт взял в свои руки управление и убедил своих товарищей начать работать сообща, чтобы добраться живыми до берега. Тем временем сообщения о крушении танкера поступили на станцию Береговой Охраны США в г. Чатаме, штат Массачусетс. Офицер Дэниэл Клафф принял решение начать рискованную операцию по спасению команды «Пендлтона». Четверо спасателей во главе с капитаном Берни Вебером на деревянной шлюпке со слабым двигателем и почти без средств навигации, должны будут дать отпор гигантским волнам и ураганному ветру, чтобы спасти терпящих бедствие моряков… Фильм основан на реальных событиях.
    Группа
    желает всем приятного просмотра!Качество видео: WEB-DLRip
    Формат видео: AVI
    Видео: 720x304 (2.37:1), 23.976 fps, XviD build 50 ~1466 kbps avg, 0.28 bit/pixel
    Аудио: 48 kHz, AC3 Dolby Digital, 2/0 (L,R) ch, ~192 kbps

    Сэмпл: http://multi-up.com/1096280

    MediaInfo

    General
    Complete name : D:\Загрузки\The Finest Hours.avi
    Format : AVI
    Format/Info : Audio Video Interleave
    File size : 1.37 GiB
    Duration : 1h 57mn
    Overall bit rate : 1 668 Kbps
    Writing application : VirtualDubMod 1.5.10.2 (build 2540/release)
    Writing library : VirtualDubMod build 2540/release
    Video
    ID : 0
    Format : MPEG-4 Visual
    Format profile : Advanced Simple@L5
    Format settings, BVOP : 2
    Format settings, QPel : No
    Format settings, GMC : No warppoints
    Format settings, Matrix : Default (MPEG)
    Codec ID : XVID
    Codec ID/Hint : XviD
    Duration : 1h 57mn
    Bit rate : 1 467 Kbps
    Width : 720 pixels
    Height : 304 pixels
    Display aspect ratio : 2.35:1
    Frame rate : 23.976 (24000/1001) fps
    Color space : YUV
    Chroma subsampling : 4:2:0
    Bit depth : 8 bits
    Scan type : Progressive
    Compression mode : Lossy
    Bits/(Pixel*Frame) : 0.280
    Stream size : 1.20 GiB (88%)
    Writing library : XviD 1.2.1 (UTC 2008-12-04)
    Audio
    ID : 1
    Format : AC-3
    Format/Info : Audio Coding 3
    Mode extension : CM (complete main)
    Format settings, Endianness : Big
    Codec ID : 2000
    Duration : 1h 57mn
    Bit rate mode : Constant
    Bit rate : 192 Kbps
    Channel(s) : 2 channels
    Channel positions : Front: L R
    Sampling rate : 48.0 KHz
    Frame rate : 31.250 fps (1536 spf)
    Compression mode : Lossy
    Stream size : 161 MiB (12%)
    Alignment : Split accross interleaves
    Interleave, duration : 42 ms (1.00 video frame)
    Interleave, preload duratio : 500 ms
    Скриншоты
    Скачать .torrent

    Скачать торрент-файл бесплатно и на максимальной скорости!

    Как скачивать? · Что такое торрент? · Рейтинг и ограничения

    !ВНИМАНИЕ!
    Сайт не распространяет и не хранит электронные версии произведений, а занимается лишь лишь предоставлением доступа к создаваемому пользователями каталогу ссылок на торрент-файлы, которые содержат только списки хеш-сумм, убедительная просьба с жалобами обращаться напрямую к пользователю. Файлы для обмена на трекере предоставлены пользователями сайта, и администрация не несёт ответственности за их содержание. Просьба не заливать файлы, защищенные авторскими правами, а также файлы нелегального содержания!


    _________________
    [Профиль] [ЛС]
    Показать сообщения:    
    Ответить на тему

    Текущее время: Сегодня, в 08:18

    Часовой пояс: GMT + 2



    Вы не можете начинать темы
    Вы не можете отвечать на сообщения
    Вы не можете редактировать свои сообщения
    Вы не можете удалять свои сообщения
    Вы не можете голосовать в опросах
    Вы не можете прикреплять файлы к сообщениям
    Вы не можете скачивать файлы