BitTorrentTracker PerecTracker.org
BitTorrentTracker PerecTracker.org
    
Регистрация  ·  Вход
 
 · 
Забыли пароль?

  • (Rap, Hip-Hop) [CD] Jay-Z - The Blueprint (EU Edition) - 2001, FLAC (image+.cue), lossless

    Ответить на тему
     
    Автор Сообщение

    Columb

    Создавать темы 21-Янв-2014 07:36

           

    [Цитировать]

    Jay-Z / The Blueprint (EU Edition)
    Жанр: Rap, Hip-Hop
    Носитель: CD
    Страна-производитель диска: Europe
    Год издания: 2001
    Издатель (лейбл): Roc-A-Fella Records
    Номер по каталогу: 586 396-2
    Страна: USA
    Аудиокодек: FLAC (*.flac)
    Тип рипа: image+.cue
    Битрейт аудио: lossless
    Продолжительность: 01:03:53
    Источник (релизер): Собственный диск
    Наличие сканов в содержимом раздачи: да
    Треклист:
    1 The Ruler's Back
    Producer – Bink
    2 Takeover
    Producer – Kanye West
    3 Izzo (H.O.V.A.)
    Producer – Kanye West
    4 Girls, Girls, Girls
    Producer – Just Blaze Vocals [Additional] – Biz Markie, Q-Tip, Slick Rick
    5 Jigga That N***a
    Producer – Poke & Tone
    6 U Don't Know
    Producer – Just Blaze
    7 Hola' Hovito
    Producer – Timbaland
    8 Heart Of The City (Ain't No Love)
    Producer – Kanye West
    9 Never Change
    Performer [Chorus, Uncredited] – Kanye West Producer – Kanye West
    10 Song Cry
    Producer – Just Blaze
    11 All I Need
    Producer – Bink
    12 Renegade
    Featuring – Eminem Producer – Eminem
    13A Blueprint (Momma Loves Me)
    Backing Vocals – Luren Leek, Schevise Harrell
    13B Breathe Easy (Lyrical Exercise)
    Producer [Uncredited] – Just Blaze
    13C Girls, Girls, Girls (Part 2)
    Producer [Uncredited] – Kanye West
    Tracks 13B and 13C are hidden bonus tracks.

    Лог создания рипа

    Exact Audio Copy V1.0 beta 3 from 29. August 2011
    Отчёт EAC об извлечении, выполненном 19. января 2014, 21:50
    Jay-Z / The Blueprint
    Дисковод: HL-DT-STDVDRAM GSA-T50N Adapter: 2 ID: 0
    Режим чтения : ДостоверностьИспользование точного потока : ДаОтключение кэша аудио : ДаИспользование указателей C2 : Нет
    Коррекция смещения при чтении : 667Способность читать области Lead-in и Lead-out : НетЗаполнение пропущенных сэмплов тишиной : ДаУдаление блоков с тишиной в начале и конце : НетПри вычислениях CRC использовались нулевые сэмплы : ДаИнтерфейс : Встроенный Win32-интерфейс для Win NT/2000
    Выходной формат : Пользовательский кодировщикВыбранный битрейт : 1024 kBit/sКачество : ВысокийДобавление ID3-тега : НетУтилита сжатия : C:\Program Files\Exact Audio Copy\Flac\FLAC.EXEДополнительные параметры : -6 -V -T "ARTIST=%artist%" -T "TITLE=%title%" -T "ALBUM=%albumtitle%" -T "DATE=%year%" -T "TRACKNUMBER=%tracknr%" -T "GENRE=%genre%" -T "COMMENT=%comment%" -T "BAND=%albuminterpret%" -T "ALBUMARTIST=%albuminterpret%" -T "COMPOSER=%composer%" %haslyrics%--tag-from-file=LYRICS="%lyricsfile%"%haslyrics% -T "DISCNUMBER=%cdnumber%" -T "TOTALDISCS=%totalcds%" -T "TOTALTRACKS=%numtracks%" %hascover%--picture="%coverfile%"%hascover% %source% -o %dest%
    TOC извлечённого CD
    Трек | Старт | Длительность | Начальный сектор | Конечный сектор --------------------------------------------------------------------- 1 | 0:00.00 | 3:49.67 | 0 | 17241 2 | 3:49.67 | 5:13.08 | 17242 | 40724 3 | 9:03.00 | 4:00.47 | 40725 | 58771 4 | 13:03.47 | 4:35.28 | 58772 | 79424 5 | 17:39.00 | 3:24.02 | 79425 | 94726 6 | 21:03.02 | 3:19.33 | 94727 | 109684 7 | 24:22.35 | 4:33.12 | 109685 | 130171 8 | 28:55.47 | 3:43.18 | 130172 | 146914 9 | 32:38.65 | 3:58.50 | 146915 | 164814 10 | 36:37.40 | 5:03.70 | 164815 | 187609 11 | 41:41.35 | 4:28.40 | 187610 | 207749 12 | 46:10.00 | 5:37.57 | 207750 | 233081 13 | 51:47.57 | 12:06.08 | 233082 | 287539
    Характеристики диапазона извлечения и сообщения об ошибках
    Выбранный диапазон
    Имя файла D:\Документы\КОНВЕРТЕР MP3\Jay-Z - The Blueprint.wav
    Пиковый уровень 100.0 % Скорость извлечения 4.1 X Качество диапазона 100.0 % CRC теста C11A1FB9 CRC копии C11A1FB9 Копирование... OK
    Ошибок не произошло
    Конец отчёта
    ==== Контрольная сумма отчёта 4E27F93C121792E6E522F98161A6F21D114047DC88ABB31CCFDDB46C5F238642 ====
    Скачать .torrent

    Скачать торрент-файл бесплатно и на максимальной скорости!

    Как скачивать? · Что такое торрент? · Рейтинг и ограничения

    !ВНИМАНИЕ!
    Сайт не распространяет и не хранит электронные версии произведений, а занимается лишь лишь предоставлением доступа к создаваемому пользователями каталогу ссылок на торрент-файлы, которые содержат только списки хеш-сумм, убедительная просьба с жалобами обращаться напрямую к пользователю. Файлы для обмена на трекере предоставлены пользователями сайта, и администрация не несёт ответственности за их содержание. Просьба не заливать файлы, защищенные авторскими правами, а также файлы нелегального содержания!

    [Профиль] [ЛС]
    Показать сообщения:    
    Ответить на тему

    Текущее время: Сегодня, в 02:38

    Часовой пояс: GMT + 2



    Вы не можете начинать темы
    Вы не можете отвечать на сообщения
    Вы не можете редактировать свои сообщения
    Вы не можете удалять свои сообщения
    Вы не можете голосовать в опросах
    Вы не можете прикреплять файлы к сообщениям
    Вы не можете скачивать файлы