BitTorrentTracker PerecTracker.org
BitTorrentTracker PerecTracker.org
    
Регистрация  ·  Вход
 
 · 
Забыли пароль?

  • Городские легенды / Urban Legend (Джэми Блэнкс / Jamie Blanks) [1998, США, Франция, ужасы, триллер, детектив, слэшер, BDRemux 1080p] MVO + Sub Rus, Eng + Original Eng

    Ответить на тему
     
    Автор Сообщение

    Light

    Создавать темы 06-Апр-2016 16:55

           

    [Цитировать]

    -Городские легенды / Urban Legend-Страна: США, Франция
    Жанр: ужасы, триллер, детектив, слэшер
    Год выпуска: 1998
    Продолжительность: 01:39:38-Перевод: Профессиональный (многоголосый закадровый)
    Cубтитры: русские, английские
    Оригинальная аудиодорожка: английский-Режиссер: Джэми Блэнкс / Jamie Blanks
    В ролях: Джаред Лето, Алисия Уитт, Ребекка Гэйхарт, Майкл Розенбаум, Лоретта Дивайн, Джошуа Джексон, Тара Рид, Джон Невилл, Джулиан Ричингс, Роберт Инглунд-Описание: Тихий студенческий городок потрясла серия кровавых убийств, совершенных с беспрецендентной жестокостью. Полиция теряется в догадках, ведь между этими жестокими преступлениями нет ничего общего. Однако студентке Натали удалось обнаружить страшную связь. На первый взгляд, она кажется невероятной: в каждом убийстве оживают городские легенды, пугающие истории из современного фольклора, передаваемые из уст в уста. Ни преподователи, ни друзья не верят девушке… и становятся следующими жертвами таинственного убийцы.-Сэмпл-Тип релиза: BDRemux 1080p
    Контейнер: MKV
    Видео: MPEG-4 AVC Video 23940 kbps 1080p / 23,976 fps / 16:9 / High Profile 4.1
    Аудио: Dolby Digital Audio Russian 640 kbps 5.1 / 48 kHz / 640 kbps
    Аудио 2: English / DTS-HD Master Audio / 5.1 / 48 kHz / 2048 kbps / 16-bit (DTS Core: 5.1 / 48 kHz / 1509 kbps / 16-bit)
    Формат субтитров: softsub (SRT)

    MI

    GeneralUnique ID : 242722113747696989207715698909114450554 (0xB69A9425E401A7C3A6D6389005E2C27A)Complete name : P:\Слэшеры\Городские легенды (1998. Urban Legend).mkvFormat : MatroskaFormat version : Version 4 / Version 2File size : 18.5 GiBDuration : 1h 39mnOverall bit rate mode : VariableOverall bit rate : 26.6 MbpsMovie name : Release for RuTrackerEncoded date : UTC 2016-04-04 22:39:23Writing application : mkvmerge v9.0.1 ('Obstacles') 64bitWriting library : libebml v1.3.3 + libmatroska v1.4.4Cover : YesAttachments : cover.jpg
    VideoID : 1Format : AVCFormat/Info : Advanced Video CodecFormat profile : High@L4.1Format settings, CABAC : YesFormat settings, ReFrames : 2 framesFormat settings, GOP : M=1, N=10Codec ID : V_MPEG4/ISO/AVCDuration : 1h 39mnBit rate mode : VariableBit rate : 23.9 MbpsWidth : 1 920 pixelsHeight : 1 080 pixelsDisplay aspect ratio : 16:9Frame rate mode : ConstantFrame rate : 23.976 (24000/1001) fpsColor space : YUVChroma subsampling : 4:2:0Bit depth : 8 bitsScan type : ProgressiveBits/(Pixel*Frame) : 0.482Stream size : 16.7 GiB (90%)Title : Urban Legend 1998 1080p Blu-ray EUR DD5.1 AVCLanguage : EnglishDefault : YesForced : No
    Audio #1ID : 2Format : AC-3Format/Info : Audio Coding 3Mode extension : CM (complete main)Format settings, Endianness : BigCodec ID : A_AC3Duration : 1h 39mnBit rate mode : ConstantBit rate : 640 KbpsChannel(s) : 6 channelsChannel positions : Front: L C R, Side: L R, LFESampling rate : 48.0 KHzFrame rate : 31.250 fps (1536 spf)Compression mode : LossyStream size : 456 MiB (2%)Title : MVOLanguage : RussianDefault : YesForced : No
    Audio #2ID : 3Format : DTSFormat/Info : Digital Theater SystemsFormat profile : MA / CoreMode : 16Format settings, Endianness : BigCodec ID : A_DTSDuration : 1h 39mnBit rate mode : Variable / ConstantBit rate : 2 048 Kbps / 1 509 KbpsChannel(s) : 6 channelsChannel positions : Front: L C R, Side: L R, LFESampling rate : 48.0 KHzFrame rate : 93.750 fps (512 spf)Bit depth : 16 bitsCompression mode : Lossless / LossyStream size : 1.42 GiB (8%)Language : EnglishDefault : NoForced : No
    Text #1ID : 4Format : UTF-8Codec ID : S_TEXT/UTF8Codec ID/Info : UTF-8 Plain TextDuration : 1h 35mnBit rate : 60 bpsCount of elements : 639Stream size : 42.1 KiB (0%)Language : RussianDefault : NoForced : No
    Text #2ID : 5Format : UTF-8Codec ID : S_TEXT/UTF8Codec ID/Info : UTF-8 Plain TextDuration : 1h 34mnBit rate : 49 bpsCount of elements : 915Stream size : 34.0 KiB (0%)Language : EnglishDefault : NoForced : No
    Menu00:00:00.000 : en:Start00:09:32.071 : en:"Out of Gas?"00:15:11.911 : en:Parker's Story00:20:07.790 : en:"Bloody Mary."00:25:26.108 : en:Professor Wexler00:35:10.734 : en:A Little Experiment00:37:52.020 : en:Inflammatory Rubbish00:45:32.271 : en:Damon the Healer00:50:17.264 : en:The Hanging Tree00:56:40.689 : en:The Library00:59:36.114 : en:Computer Date01:09:00.094 : en:Tragic Suicide01:15:18.723 : en:25Th Anniversary01:19:33.268 : en:Wexler's Office01:27:00.048 : en:Criminal Record01:31:04.668 : en:"I Knew Michelle."
    Скриншоты

    Зеркало


    Скачать .torrent

    Скачать торрент-файл бесплатно и на максимальной скорости!

    Как скачивать? · Что такое торрент? · Рейтинг и ограничения

    !ВНИМАНИЕ!
    Сайт не распространяет и не хранит электронные версии произведений, а занимается лишь лишь предоставлением доступа к создаваемому пользователями каталогу ссылок на торрент-файлы, которые содержат только списки хеш-сумм, убедительная просьба с жалобами обращаться напрямую к пользователю. Файлы для обмена на трекере предоставлены пользователями сайта, и администрация не несёт ответственности за их содержание. Просьба не заливать файлы, защищенные авторскими правами, а также файлы нелегального содержания!


    _________________
    [Профиль] [ЛС]
    Показать сообщения:    
    Ответить на тему

    Текущее время: Сегодня, в 19:52

    Часовой пояс: GMT + 2



    Вы не можете начинать темы
    Вы не можете отвечать на сообщения
    Вы не можете редактировать свои сообщения
    Вы не можете удалять свои сообщения
    Вы не можете голосовать в опросах
    Вы не можете прикреплять файлы к сообщениям
    Вы не можете скачивать файлы