BitTorrentTracker PerecTracker.org
BitTorrentTracker PerecTracker.org
    
Регистрация  ·  Вход
 
 · 
Забыли пароль?

  • Падение Крэйсов / The Fall of the Krays (Закари Адлер / Zackary Adler) [2016, Великобритания, криминал, HDRip] VO

    Ответить на тему
     
    Автор Сообщение

    rechyn

    Создавать темы 06-Апр-2016 16:55

           

    [Цитировать]

    Падение Крэйсов / The Fall of the Krays
    Страна: Великобритания
    Жанр: криминал
    Год выпуска: 2016
    Продолжительность: 01:51:35
    Перевод: Одноголосый (закадровый)
    Cубтитры: нет
    Оригинальная аудиодорожка: нет
    Режиссер: Закари Адлер / Zackary Adler
    В ролях: Адриан Буше, Кевин Лесли, Джордж Уэбстер, Алекса Булл, Саймон Коттон, Пол Блэкуэлл, Джош Майерс, Филип Ховард, Йен Кейр Аттард, Ричард Бэнкс
    Описание: Взгляд близкого друга на историю братьев-близнецов, выросших в неизвестной спецшколе и ставших самыми опасными людьми в Британии, о их подъеме на криминальный олимп и падении...
    Группа
    желает всем приятного просмотра!Качество видео: HDRip [BDRip 1080p]
    Формат видео: AVI
    Видео: 720x400 (1.80:1), 25 fps, XviD build 65 ~1653 kbps avg, 0.23 bit/pixel
    Аудио: 48 kHz, AC3 Dolby Digital, 2/0 (L,R) ch, ~192 kbps

    Сэмпл: http://multi-up.com/1096113
    Сравнениеhttp://perectracker.org/http://perectracker.org/viewtopic.php?t=5193487
    # сомнительно

    MediaInfo

    General
    Complete name : C:\Users\Никита\Desktop\падение крейсов.avi
    Format : AVI
    Format/Info : Audio Video Interleave
    File size : 1.44 GiB
    Duration : 1h 51mn
    Overall bit rate : 1 855 Kbps
    Writing application : VirtualDubMod 1.5.10.2 (build 2540/release)
    Writing library : VirtualDubMod build 2540/release
    Video
    ID : 0
    Format : MPEG-4 Visual
    Format profile : Advanced Simple@L5
    Format settings, BVOP : 2
    Format settings, QPel : No
    Format settings, GMC : No warppoints
    Format settings, Matrix : Custom
    Codec ID : XVID
    Codec ID/Hint : XviD
    Duration : 1h 51mn
    Bit rate : 1 653 Kbps
    Width : 720 pixels
    Height : 400 pixels
    Display aspect ratio : 16:9
    Frame rate : 25.000 fps
    Color space : YUV
    Chroma subsampling : 4:2:0
    Bit depth : 8 bits
    Scan type : Progressive
    Compression mode : Lossy
    Bits/(Pixel*Frame) : 0.230
    Stream size : 1.28 GiB (89%)
    Writing library : XviD 65
    Audio
    ID : 1
    Format : AC-3
    Format/Info : Audio Coding 3
    Mode extension : CM (complete main)
    Format settings, Endianness : Big
    Codec ID : 2000
    Duration : 1h 51mn
    Bit rate mode : Constant
    Bit rate : 192 Kbps
    Channel(s) : 2 channels
    Channel positions : Front: L R
    Sampling rate : 48.0 KHz
    Frame rate : 31.250 fps (1536 spf)
    Compression mode : Lossy
    Stream size : 153 MiB (10%)
    Alignment : Split accross interleaves
    Interleave, duration : 40 ms (1.00 video frame)
    Interleave, preload duratio : 500 ms
    Скриншоты
    Скачать .torrent

    Скачать торрент-файл бесплатно и на максимальной скорости!

    Как скачивать? · Что такое торрент? · Рейтинг и ограничения

    !ВНИМАНИЕ!
    Сайт не распространяет и не хранит электронные версии произведений, а занимается лишь лишь предоставлением доступа к создаваемому пользователями каталогу ссылок на торрент-файлы, которые содержат только списки хеш-сумм, убедительная просьба с жалобами обращаться напрямую к пользователю. Файлы для обмена на трекере предоставлены пользователями сайта, и администрация не несёт ответственности за их содержание. Просьба не заливать файлы, защищенные авторскими правами, а также файлы нелегального содержания!


    _________________
    [Профиль] [ЛС]
    Показать сообщения:    
    Ответить на тему

    Текущее время: Сегодня, в 02:33

    Часовой пояс: GMT + 2



    Вы не можете начинать темы
    Вы не можете отвечать на сообщения
    Вы не можете редактировать свои сообщения
    Вы не можете удалять свои сообщения
    Вы не можете голосовать в опросах
    Вы не можете прикреплять файлы к сообщениям
    Вы не можете скачивать файлы