Register  ·  Log in
Forgot password?

  • Падение Крэйсов / The Fall of the Krays (Закари Адлер / Zackary Adler) [2016, Великобритания, криминал, HDRip] VO

    Reply to topic
    Author Message


    Post 06-Apr-2016 17:55



    Падение Крэйсов / The Fall of the Krays
    Страна: Великобритания
    Жанр: криминал
    Год выпуска: 2016
    Продолжительность: 01:51:35
    Перевод: Одноголосый (закадровый)
    Cубтитры: нет
    Оригинальная аудиодорожка: нет
    Режиссер: Закари Адлер / Zackary Adler
    В ролях: Адриан Буше, Кевин Лесли, Джордж Уэбстер, Алекса Булл, Саймон Коттон, Пол Блэкуэлл, Джош Майерс, Филип Ховард, Йен Кейр Аттард, Ричард Бэнкс
    Описание: Взгляд близкого друга на историю братьев-близнецов, выросших в неизвестной спецшколе и ставших самыми опасными людьми в Британии, о их подъеме на криминальный олимп и падении...
    желает всем приятного просмотра!Качество видео: HDRip [BDRip 1080p]
    Формат видео: AVI
    Видео: 720x400 (1.80:1), 25 fps, XviD build 65 ~1653 kbps avg, 0.23 bit/pixel
    Аудио: 48 kHz, AC3 Dolby Digital, 2/0 (L,R) ch, ~192 kbps

    # сомнительно


    Complete name : C:\Users\Никита\Desktop\падение крейсов.avi
    Format : AVI
    Format/Info : Audio Video Interleave
    File size : 1.44 GiB
    Duration : 1h 51mn
    Overall bit rate : 1 855 Kbps
    Writing application : VirtualDubMod (build 2540/release)
    Writing library : VirtualDubMod build 2540/release
    ID : 0
    Format : MPEG-4 Visual
    Format profile : Advanced Simple@L5
    Format settings, BVOP : 2
    Format settings, QPel : No
    Format settings, GMC : No warppoints
    Format settings, Matrix : Custom
    Codec ID : XVID
    Codec ID/Hint : XviD
    Duration : 1h 51mn
    Bit rate : 1 653 Kbps
    Width : 720 pixels
    Height : 400 pixels
    Display aspect ratio : 16:9
    Frame rate : 25.000 fps
    Color space : YUV
    Chroma subsampling : 4:2:0
    Bit depth : 8 bits
    Scan type : Progressive
    Compression mode : Lossy
    Bits/(Pixel*Frame) : 0.230
    Stream size : 1.28 GiB (89%)
    Writing library : XviD 65
    ID : 1
    Format : AC-3
    Format/Info : Audio Coding 3
    Mode extension : CM (complete main)
    Format settings, Endianness : Big
    Codec ID : 2000
    Duration : 1h 51mn
    Bit rate mode : Constant
    Bit rate : 192 Kbps
    Channel(s) : 2 channels
    Channel positions : Front: L R
    Sampling rate : 48.0 KHz
    Frame rate : 31.250 fps (1536 spf)
    Compression mode : Lossy
    Stream size : 153 MiB (10%)
    Alignment : Split accross interleaves
    Interleave, duration : 40 ms (1.00 video frame)
    Interleave, preload duratio : 500 ms
    Download .torrent

    Download free and at maximum speed!

    How to Download? · What is a torrent? · Ratings and Limitations

    The site does not extend and does not store electronic(digital) versions of products, and only gives access to a reference catalogue created by users on torrent-files which contain only lists of the hash-sums, the earnest entreaty, with complaints(abuse) to access directly to the user. Files for an exchange on tracker are given by users of a site, and the administration does not bear the responsibility for their maintenance. The request to not fill in the files protected by copyrights, and also files of the illegal maintenance!

    [Profile] [PM]
    Display posts from previous:    
    Reply to topic

    The time now is: Today 03:02

    All times are GMT + 3 Hours

    You cannot post new topics in this forum
    You cannot reply to topics in this forum
    You cannot edit your posts in this forum
    You cannot delete your posts in this forum
    You cannot vote in polls in this forum
    You cannot attach files in this forum
    You cannot download files in this forum