BitTorrentTracker PerecTracker.org
BitTorrentTracker PerecTracker.org
    
Регистрация  ·  Вход
 
 · 
Забыли пароль?

  • Вокзал / Terminus (Марк Фурми / Marc Furmie) [2015, Австралия, Фантастика, HDRip] MVO (Paradox & Omskbird Records)

    Ответить на тему
     
    Автор Сообщение

    Light

    Создавать темы 06-Апр-2016 16:55

           

    [Цитировать]

    Вокзал / Terminus--Страна: Австралия
    Жанр: Фантастика
    Продолжительность: 01:33:53
    Год выпуска: 2015
    -Перевод: Любительский (многоголосый, закадровый) | Paradox & Omskbird Records
    Субтитры: нет
    Режиссёр: Марк Фурми / Marc Furmie
    -В ролях:
    Джай Кутрэ, Кендра Эпплтон, Тодд Ласанс, Брен Фостер, Брендан Клиркин, Винсент Андриано, Уильям Эммонс, Кэтерин Хикс, Стив Ле Маркванд, Джон Маннинг
    -Описание:
    В результате несчастного случая, оказавшись на грани между жизнью и смертью, Дэвид Чемберлен делает беспрецедентное открытие, которое предопределит не только судьбу его семьи, но и судьбу всего человечества…-Релиз групп All Films и RG Torrents.ru-Сэмпл: https://www.sendspace.com/file/tbd4b6-Внимание! Присутствует ненормативная лексика! (1 раз за фильм)-Качество: HDRip - Исходник (Спасибо K_A_E)
    Формат: AVI
    Видео: 688x288 (2.39:1), 23.976 fps, XviD build 73 ~970 kbps avg, 0.20 bit/pixel
    Аудио: 48 kHz, MPEG Layer 3, 2 ch, ~128.00 kbps avg
    -

    Отчёт MediaInfo

    General
    Complete name : C:\Users\Максим\Desktop\Terminus.2015.HDRip.polkera.avi
    Format : AVI
    Format/Info : Audio Video Interleave
    File size : 744 MiB
    Duration : 1h 33mn
    Overall bit rate : 1 108 Kbps
    Writing application : VirtualDubMod 1.5.10.3 | www.virtualdub-fr.org || (build 2550/release)
    Writing library : VirtualDubMod build 2550/release
    Video
    Format : MPEG-4 Visual
    Format profile : Streaming Video@L1
    Format settings, BVOP : Yes
    Format settings, QPel : No
    Format settings, GMC : No warppoints
    Format settings, Matrix : Custom
    Codec ID : XVID
    Codec ID/Hint : XviD
    Duration : 1h 33mn
    Bit rate : 971 Kbps
    Width : 688 pixels
    Height : 288 pixels
    Display aspect ratio : 2.35
    Frame rate : 23.976 fps
    Resolution : 24 bits
    Colorimetry : 4:2:0
    Scan type : Progressive
    Bits/(Pixel*Frame) : 0.204
    Stream size : 652 MiB (88%)
    Writing library : XviD 73
    Audio
    Format : MPEG Audio
    Format version : Version 1
    Format profile : Layer 3
    Codec ID : 55
    Codec ID/Hint : MP3
    Duration : 1h 33mn
    Bit rate mode : Constant
    Bit rate : 128 Kbps
    Channel(s) : 2 channels
    Sampling rate : 48.0 KHz
    Resolution : 16 bits
    Stream size : 86.0 MiB (12%)
    Alignment : Aligned on interleaves
    Interleave, duration : 42 ms (1.00 video frame)
    Interleave, preload duration : 504 ms
    Writing library : LAME3.99r
    Encoding settings : -m s -V 4 -q 2 -lowpass 17 -b 128

    -

    Скриншоты

    -
    Скачать .torrent

    Скачать торрент-файл бесплатно и на максимальной скорости!

    Как скачивать? · Что такое торрент? · Рейтинг и ограничения

    !ВНИМАНИЕ!
    Сайт не распространяет и не хранит электронные версии произведений, а занимается лишь лишь предоставлением доступа к создаваемому пользователями каталогу ссылок на торрент-файлы, которые содержат только списки хеш-сумм, убедительная просьба с жалобами обращаться напрямую к пользователю. Файлы для обмена на трекере предоставлены пользователями сайта, и администрация не несёт ответственности за их содержание. Просьба не заливать файлы, защищенные авторскими правами, а также файлы нелегального содержания!


    _________________
    [Профиль] [ЛС]
    Показать сообщения:    
    Ответить на тему

    Текущее время: Сегодня, в 04:22

    Часовой пояс: GMT + 2



    Вы не можете начинать темы
    Вы не можете отвечать на сообщения
    Вы не можете редактировать свои сообщения
    Вы не можете удалять свои сообщения
    Вы не можете голосовать в опросах
    Вы не можете прикреплять файлы к сообщениям
    Вы не можете скачивать файлы