Register  ·  Log in
Forgot password?

  • Вокзал / Terminus (Марк Фурми / Marc Furmie) [2015, Австралия, Фантастика, HDRip] MVO (Paradox & Omskbird Records)

    Reply to topic
    Author Message


    Post 06-Apr-2016 17:55



    Вокзал / Terminus--Страна: Австралия
    Жанр: Фантастика
    Продолжительность: 01:33:53
    Год выпуска: 2015
    -Перевод: Любительский (многоголосый, закадровый) | Paradox & Omskbird Records
    Субтитры: нет
    Режиссёр: Марк Фурми / Marc Furmie
    -В ролях:
    Джай Кутрэ, Кендра Эпплтон, Тодд Ласанс, Брен Фостер, Брендан Клиркин, Винсент Андриано, Уильям Эммонс, Кэтерин Хикс, Стив Ле Маркванд, Джон Маннинг
    В результате несчастного случая, оказавшись на грани между жизнью и смертью, Дэвид Чемберлен делает беспрецедентное открытие, которое предопределит не только судьбу его семьи, но и судьбу всего человечества…-Релиз групп All Films и RGСэмпл:Внимание! Присутствует ненормативная лексика! (1 раз за фильм)-Качество: HDRip - Исходник (Спасибо K_A_E)
    Формат: AVI
    Видео: 688x288 (2.39:1), 23.976 fps, XviD build 73 ~970 kbps avg, 0.20 bit/pixel
    Аудио: 48 kHz, MPEG Layer 3, 2 ch, ~128.00 kbps avg

    Отчёт MediaInfo

    Complete name : C:\Users\Максим\Desktop\Terminus.2015.HDRip.polkera.avi
    Format : AVI
    Format/Info : Audio Video Interleave
    File size : 744 MiB
    Duration : 1h 33mn
    Overall bit rate : 1 108 Kbps
    Writing application : VirtualDubMod | || (build 2550/release)
    Writing library : VirtualDubMod build 2550/release
    Format : MPEG-4 Visual
    Format profile : Streaming Video@L1
    Format settings, BVOP : Yes
    Format settings, QPel : No
    Format settings, GMC : No warppoints
    Format settings, Matrix : Custom
    Codec ID : XVID
    Codec ID/Hint : XviD
    Duration : 1h 33mn
    Bit rate : 971 Kbps
    Width : 688 pixels
    Height : 288 pixels
    Display aspect ratio : 2.35
    Frame rate : 23.976 fps
    Resolution : 24 bits
    Colorimetry : 4:2:0
    Scan type : Progressive
    Bits/(Pixel*Frame) : 0.204
    Stream size : 652 MiB (88%)
    Writing library : XviD 73
    Format : MPEG Audio
    Format version : Version 1
    Format profile : Layer 3
    Codec ID : 55
    Codec ID/Hint : MP3
    Duration : 1h 33mn
    Bit rate mode : Constant
    Bit rate : 128 Kbps
    Channel(s) : 2 channels
    Sampling rate : 48.0 KHz
    Resolution : 16 bits
    Stream size : 86.0 MiB (12%)
    Alignment : Aligned on interleaves
    Interleave, duration : 42 ms (1.00 video frame)
    Interleave, preload duration : 504 ms
    Writing library : LAME3.99r
    Encoding settings : -m s -V 4 -q 2 -lowpass 17 -b 128



    Download .torrent

    Download free and at maximum speed!

    How to Download? · What is a torrent? · Ratings and Limitations

    The site does not extend and does not store electronic(digital) versions of products, and only gives access to a reference catalogue created by users on torrent-files which contain only lists of the hash-sums, the earnest entreaty, with complaints(abuse) to access directly to the user. Files for an exchange on tracker are given by users of a site, and the administration does not bear the responsibility for their maintenance. The request to not fill in the files protected by copyrights, and also files of the illegal maintenance!

    [Profile] [PM]
    Display posts from previous:    
    Reply to topic

    The time now is: Today 17:00

    All times are GMT + 3 Hours

    You cannot post new topics in this forum
    You cannot reply to topics in this forum
    You cannot edit your posts in this forum
    You cannot delete your posts in this forum
    You cannot vote in polls in this forum
    You cannot attach files in this forum
    You cannot download files in this forum