Register  ·  Log in
Forgot password?

  • Здравствуй, папа, Новый год / Daddy\'s Home (Шон Андерс / Sean Anders) [2015, США, Комедия, BDRip] Dub (iTunes)

    Reply to topic
    Author Message


    Post 06-Apr-2016 17:55



    Здравствуй, папа, Новый год / Daddy's Home--Страна: США
    Жанр: Комедия
    Продолжительность: 01:36:01
    Год выпуска: 2015
    -Перевод: Профессиональный (дублированный) | iTunes
    Субтитры: нет
    Режиссёр: Шон Андерс / Sean Anders
    -В ролях:
    Уилл Феррелл, Марк Уолберг, Линда Карделлини, Томас Хейден Чёрч, Скарлет Эстевез, Оуэн Ваккаро, Бобби Каннавале, Хэннибал Бёресс, Билл Бёрр, Джейми Денбо
    "Папа дома!" – ликуют дети, счастлива жена. А что происходит, когда дома оказываются сразу два папы...? Брэд, всегда мечтавший о дружной семье, решительно настроен стать отличным отчимом детям своей супруги. Но неожиданно домой возвращается не менее любвеобильный биологический отец Дасти. Идиллия Брэда рушится в один момент, и начинается противостояние папа vs. отчим, сдобренное изрядной долей умопомрачительно комичных моментов.
    -Релиз групп All Films и RGСэмпл:Качество: BDRip - Исходник - BDRemux 1080p (HDCLUB)
    Формат: AVI
    Видео: 720x400 (1.80:1), 23.976 fps, XviD build 73 ~1778 kbps avg, 0.26 bit/pixel
    Аудио: 48 kHz, AC3 Dolby Digital, 3/2 (L,C,R,l,r) + LFE ch, ~384 kbps

    Отчёт MediaInfo

    Complete name : C:\Users\Максим\Desktop\Daddys.Home.2015.BDRip.polkera.avi
    Format : AVI
    Format/Info : Audio Video Interleave
    File size : 1.46 GiB
    Duration : 1h 36mn
    Overall bit rate : 2 172 Kbps
    Writing application : VirtualDubMod | || (build 2550/release)
    Writing library : VirtualDubMod build 2550/release
    Format : MPEG-4 Visual
    Format profile : Streaming Video@L1
    Format settings, BVOP : Yes
    Format settings, QPel : No
    Format settings, GMC : No warppoints
    Format settings, Matrix : Custom
    Codec ID : XVID
    Codec ID/Hint : XviD
    Duration : 1h 36mn
    Bit rate : 1 778 Kbps
    Width : 720 pixels
    Height : 400 pixels
    Display aspect ratio : 16/9
    Frame rate : 23.976 fps
    Resolution : 24 bits
    Colorimetry : 4:2:0
    Scan type : Progressive
    Bits/(Pixel*Frame) : 0.258
    Stream size : 1.19 GiB (82%)
    Writing library : XviD 73
    Format : AC-3
    Format/Info : Audio Coding 3
    Codec ID : 2000
    Duration : 1h 36mn
    Bit rate mode : Constant
    Bit rate : 384 Kbps
    Channel(s) : 6 channels
    Channel positions : Front: L C R, Surround: L R, LFE
    Sampling rate : 48.0 KHz
    Stream size : 264 MiB (18%)
    Alignment : Split accross interleaves
    Interleave, duration : 42 ms (1.00 video frame)
    Interleave, preload duration : 500 ms



    Download .torrent

    Download free and at maximum speed!

    How to Download? · What is a torrent? · Ratings and Limitations

    The site does not extend and does not store electronic(digital) versions of products, and only gives access to a reference catalogue created by users on torrent-files which contain only lists of the hash-sums, the earnest entreaty, with complaints(abuse) to access directly to the user. Files for an exchange on tracker are given by users of a site, and the administration does not bear the responsibility for their maintenance. The request to not fill in the files protected by copyrights, and also files of the illegal maintenance!

    [Profile] [PM]
    Display posts from previous:    
    Reply to topic

    The time now is: Today 01:15

    All times are GMT + 3 Hours

    You cannot post new topics in this forum
    You cannot reply to topics in this forum
    You cannot edit your posts in this forum
    You cannot delete your posts in this forum
    You cannot vote in polls in this forum
    You cannot attach files in this forum
    You cannot download files in this forum