BitTorrentTracker PerecTracker.org
BitTorrentTracker PerecTracker.org
    
Регистрация  ·  Вход
 
 · 
Забыли пароль?

  • Здравствуй, папа, Новый год / Daddy\'s Home (Шон Андерс / Sean Anders) [2015, США, Комедия, BDRip] Dub (iTunes)

    Ответить на тему
     
    Автор Сообщение

    Light

    Создавать темы 06-Апр-2016 16:55

           

    [Цитировать]

    Здравствуй, папа, Новый год / Daddy's Home--Страна: США
    Жанр: Комедия
    Продолжительность: 01:36:01
    Год выпуска: 2015
    -Перевод: Профессиональный (дублированный) | iTunes
    Субтитры: нет
    Режиссёр: Шон Андерс / Sean Anders
    -В ролях:
    Уилл Феррелл, Марк Уолберг, Линда Карделлини, Томас Хейден Чёрч, Скарлет Эстевез, Оуэн Ваккаро, Бобби Каннавале, Хэннибал Бёресс, Билл Бёрр, Джейми Денбо
    -Описание:
    "Папа дома!" – ликуют дети, счастлива жена. А что происходит, когда дома оказываются сразу два папы...? Брэд, всегда мечтавший о дружной семье, решительно настроен стать отличным отчимом детям своей супруги. Но неожиданно домой возвращается не менее любвеобильный биологический отец Дасти. Идиллия Брэда рушится в один момент, и начинается противостояние папа vs. отчим, сдобренное изрядной долей умопомрачительно комичных моментов.
    -Релиз групп All Films и RG Torrents.ru-Сэмпл: https://www.sendspace.com/file/sg5nw8-Качество: BDRip - Исходник - BDRemux 1080p (HDCLUB)
    Формат: AVI
    Видео: 720x400 (1.80:1), 23.976 fps, XviD build 73 ~1778 kbps avg, 0.26 bit/pixel
    Аудио: 48 kHz, AC3 Dolby Digital, 3/2 (L,C,R,l,r) + LFE ch, ~384 kbps
    -

    Отчёт MediaInfo

    General
    Complete name : C:\Users\Максим\Desktop\Daddys.Home.2015.BDRip.polkera.avi
    Format : AVI
    Format/Info : Audio Video Interleave
    File size : 1.46 GiB
    Duration : 1h 36mn
    Overall bit rate : 2 172 Kbps
    Writing application : VirtualDubMod 1.5.10.3 | www.virtualdub-fr.org || (build 2550/release)
    Writing library : VirtualDubMod build 2550/release
    Video
    Format : MPEG-4 Visual
    Format profile : Streaming Video@L1
    Format settings, BVOP : Yes
    Format settings, QPel : No
    Format settings, GMC : No warppoints
    Format settings, Matrix : Custom
    Codec ID : XVID
    Codec ID/Hint : XviD
    Duration : 1h 36mn
    Bit rate : 1 778 Kbps
    Width : 720 pixels
    Height : 400 pixels
    Display aspect ratio : 16/9
    Frame rate : 23.976 fps
    Resolution : 24 bits
    Colorimetry : 4:2:0
    Scan type : Progressive
    Bits/(Pixel*Frame) : 0.258
    Stream size : 1.19 GiB (82%)
    Writing library : XviD 73
    Audio
    Format : AC-3
    Format/Info : Audio Coding 3
    Codec ID : 2000
    Duration : 1h 36mn
    Bit rate mode : Constant
    Bit rate : 384 Kbps
    Channel(s) : 6 channels
    Channel positions : Front: L C R, Surround: L R, LFE
    Sampling rate : 48.0 KHz
    Stream size : 264 MiB (18%)
    Alignment : Split accross interleaves
    Interleave, duration : 42 ms (1.00 video frame)
    Interleave, preload duration : 500 ms

    -

    Скриншоты

    -
    |
    Скачать .torrent

    Скачать торрент-файл бесплатно и на максимальной скорости!

    Как скачивать? · Что такое торрент? · Рейтинг и ограничения

    !ВНИМАНИЕ!
    Сайт не распространяет и не хранит электронные версии произведений, а занимается лишь лишь предоставлением доступа к создаваемому пользователями каталогу ссылок на торрент-файлы, которые содержат только списки хеш-сумм, убедительная просьба с жалобами обращаться напрямую к пользователю. Файлы для обмена на трекере предоставлены пользователями сайта, и администрация не несёт ответственности за их содержание. Просьба не заливать файлы, защищенные авторскими правами, а также файлы нелегального содержания!


    _________________
    [Профиль] [ЛС]
    Показать сообщения:    
    Ответить на тему

    Текущее время: Сегодня, в 19:27

    Часовой пояс: GMT + 2



    Вы не можете начинать темы
    Вы не можете отвечать на сообщения
    Вы не можете редактировать свои сообщения
    Вы не можете удалять свои сообщения
    Вы не можете голосовать в опросах
    Вы не можете прикреплять файлы к сообщениям
    Вы не можете скачивать файлы