BitTorrentTracker PerecTracker.org
BitTorrentTracker PerecTracker.org
    
Регистрация  ·  Вход
 
 · 
Забыли пароль?

  • Движущийся лес / A Floresta Que Se Move (Винисиус Коимбра / Vinicius Coimbra) [2015, Бразилия, триллер, драма, DVDRip] DVO

    Ответить на тему
     
    Автор Сообщение

    Light

    Создавать темы 06-Апр-2016 12:50

           

    [Цитировать]

    -Движущийся лес
    A Floresta Que Se Move
    -Страна: Бразилия
    Жанр: триллер, драма
    Год выпуска: 2015
    Продолжительность: 01:38:57-Перевод: Любительский (двухголосый закадровый) Avebrasil
    Cубтитры: нет
    Оригинальная аудиодорожка: нет-Режиссер: Винисиус Коимбра / Vinicius Coimbra-В ролях: Габриэл Брага Нунес, Ана Паула Арозио, Нелсон Шавьер, Анжело Антонио, Фернанду Алвес Пинто, Мириам Фриланд, Руй Рикарду Диас, Татсу Карвалью, Режина Ременсиус, Жулиана Карнейру да Кунья, Эмилиану Кейроз и другие-Описание: В основе сюжета - классическое произведение Уильяма Шекспира "Макбет". Элиас — успешный руководитель, который работает в одном из самых лучших частных банков Бразилии. У него есть все возможности для хорошего профессионального роста, которые ему дает Эйтор, президент банка. По возвращении из командировки и придя в банк, Элиас сталкивается с таинственной женщиной, которая приветствует его по имени и говорит, что в один день он станет вице-президентом банка, а на следующий — уже президентом.
    Под большим впечатлением, Элиас рассказывает эту историю своей жене Кларе. Клара очень воодушевлена предсказанием незнакомки и предлагает пригласить Эйтора на ужин. С этого момента происходит серия убийств, совершенных парой, которая оставляет за собой кровавый след на пути к власти, которая становится мучителем и жертвой их собственных судеб…
    - -Качество видео: DVDRip
    Формат видео: AVI
    Видео: 720Х400 (16:9) 29,970 fps, 1 910 kbps,0.221 bit/pixel
    Аудио: 48 kHz, AC-3, 2 ch, 192 kbps-

    MediaInfo

    General
    Complete name : D:\Фильмы\Dvizhyshijsya.les.2015.P.DVDRip.1.46GB.avi
    Format : AVI
    Format/Info : Audio Video Interleave
    File size : 1.46 GiB
    Duration : 1h 38mn
    Overall bit rate : 2 114 Kbps
    Writing application : VirtualDubMod 1.5.10.2 (build 2540/release)
    Writing library : VirtualDubMod build 2540/release
    Video
    ID : 0
    Format : MPEG-4 Visual
    Format profile : Advanced Simple@L5
    Format settings, BVOP : 2
    Format settings, QPel : No
    Format settings, GMC : No warppoints
    Format settings, Matrix : Default (MPEG)
    Codec ID : XVID
    Codec ID/Hint : XviD
    Duration : 1h 38mn
    Bit rate : 1 910 Kbps
    Width : 720 pixels
    Height : 400 pixels
    Display aspect ratio : 16:9
    Frame rate : 29.970 (30000/1001) fps
    Color space : YUV
    Chroma subsampling : 4:2:0
    Bit depth : 8 bits
    Scan type : Progressive
    Compression mode : Lossy
    Bits/(Pixel*Frame) : 0.221
    Stream size : 1.32 GiB (90%)
    Writing library : XviD 1.2.1 (UTC 2008-12-04)
    Audio
    ID : 1
    Format : AC-3
    Format/Info : Audio Coding 3
    Mode extension : CM (complete main)
    Format settings, Endianness : Big
    Codec ID : 2000
    Duration : 1h 38mn
    Bit rate mode : Constant
    Bit rate : 192 Kbps
    Channel(s) : 2 channels
    Channel positions : Front: L R
    Sampling rate : 48.0 KHz
    Frame rate : 31.250 fps (1536 spf)
    Compression mode : Lossy
    Stream size : 136 MiB (9%)
    Alignment : Split accross interleaves
    Interleave, duration : 33 ms (1.00 video frame)
    Interleave, preload duratio : 500 ms

    -

    Скриншот c названием фильма

    Скриншоты

    -
    Скачать .torrent

    Скачать торрент-файл бесплатно и на максимальной скорости!

    Как скачивать? · Что такое торрент? · Рейтинг и ограничения

    !ВНИМАНИЕ!
    Сайт не распространяет и не хранит электронные версии произведений, а занимается лишь лишь предоставлением доступа к создаваемому пользователями каталогу ссылок на торрент-файлы, которые содержат только списки хеш-сумм, убедительная просьба с жалобами обращаться напрямую к пользователю. Файлы для обмена на трекере предоставлены пользователями сайта, и администрация не несёт ответственности за их содержание. Просьба не заливать файлы, защищенные авторскими правами, а также файлы нелегального содержания!


    _________________
    [Профиль] [ЛС]
    Показать сообщения:    
    Ответить на тему

    Текущее время: Сегодня, в 04:39

    Часовой пояс: GMT + 2



    Вы не можете начинать темы
    Вы не можете отвечать на сообщения
    Вы не можете редактировать свои сообщения
    Вы не можете удалять свои сообщения
    Вы не можете голосовать в опросах
    Вы не можете прикреплять файлы к сообщениям
    Вы не можете скачивать файлы