BitTorrentTracker PerecTracker.org
BitTorrentTracker PerecTracker.org
    
Регистрация  ·  Вход
 
 · 
Забыли пароль?

  • Здравствуй, папа, Новый год / Daddy\'s Home (Шон Андерс / Sean Anders) [2015, США, Комедия, HDRip] Dub (ITunes)

    Ответить на тему
     
    Автор Сообщение

    Light

    Создавать темы 06-Апр-2016 12:50

           

    [Цитировать]

    Здравствуй, папа, Новый год / Daddy's Home--Страна: США
    Жанр: Комедия
    Продолжительность: 01:36:01
    Год выпуска: 2015
    -Перевод: Профессиональный (дублированный) | iTunes
    Субтитры: нет
    Режиссёр: Шон Андерс / Sean Anders
    -В ролях:
    Уилл Феррелл, Марк Уолберг, Линда Карделлини, Томас Хейден Чёрч, Скарлет Эстевез, Оуэн Ваккаро, Бобби Каннавале, Хэннибал Бёресс, Билл Бёрр, Джейми Денбо
    -Описание:
    "Папа дома!" – ликуют дети, счастлива жена. А что происходит, когда дома оказываются сразу два папы...? Брэд, всегда мечтавший о дружной семье, решительно настроен стать отличным отчимом детям своей супруги. Но неожиданно домой возвращается не менее любвеобильный биологический отец Дасти. Идиллия Брэда рушится в один момент, и начинается противостояние папа vs. отчим, сдобренное изрядной долей умопомрачительно комичных моментов.
    -Релиз групп All Films и RG Torrents.ru-Сэмпл: https://www.sendspace.com/file/jg06ri-Качество: HDRip - Исходник (Спасибо flaSI-I)
    Формат: AVI
    Видео: 656x368 (1.78:1), 23.976 fps, XviD build 50 ~949 kbps avg, 0.16 bit/pixel
    Аудио: 48 kHz, MPEG Layer 3, 2 ch, ~128.00 kbps avg
    -

    Отчёт MediaInfo

    General
    Complete name : C:\Users\Максим\Desktop\Daddy's Home.2015.HDRip.Dub.745.polkera.avi
    Format : AVI
    Format/Info : Audio Video Interleave
    File size : 747 MiB
    Duration : 1h 36mn
    Overall bit rate : 1 087 Kbps
    Writing application : VirtualDubMod 1.5.10.3 | www.virtualdub-fr.org || (build 2550/release)
    Writing library : VirtualDubMod build 2550/release
    Video
    Format : MPEG-4 Visual
    Format profile : Streaming Video@L1
    Format settings, BVOP : Yes
    Format settings, QPel : No
    Format settings, GMC : No warppoints
    Format settings, Matrix : Custom
    Codec ID : XVID
    Codec ID/Hint : XviD
    Duration : 1h 36mn
    Bit rate : 950 Kbps
    Width : 656 pixels
    Height : 368 pixels
    Display aspect ratio : 16/9
    Frame rate : 23.976 fps
    Resolution : 24 bits
    Colorimetry : 4:2:0
    Scan type : Progressive
    Bits/(Pixel*Frame) : 0.164
    Stream size : 652 MiB (87%)
    Writing library : XviD 1.2.1 (UTC 2008-12-04)
    Audio
    Format : MPEG Audio
    Format version : Version 1
    Format profile : Layer 3
    Codec ID : 55
    Codec ID/Hint : MP3
    Duration : 1h 36mn
    Bit rate mode : Constant
    Bit rate : 128 Kbps
    Channel(s) : 2 channels
    Sampling rate : 48.0 KHz
    Resolution : 16 bits
    Stream size : 87.9 MiB (12%)
    Alignment : Aligned on interleaves
    Interleave, duration : 42 ms (1.00 video frame)
    Interleave, preload duration : 504 ms
    Writing library : LAME3.99r
    Encoding settings : -m s -V 4 -q 2 -lowpass 17 -b 128

    -

    Скриншоты

    -
    |
    Скачать .torrent

    Скачать торрент-файл бесплатно и на максимальной скорости!

    Как скачивать? · Что такое торрент? · Рейтинг и ограничения

    !ВНИМАНИЕ!
    Сайт не распространяет и не хранит электронные версии произведений, а занимается лишь лишь предоставлением доступа к создаваемому пользователями каталогу ссылок на торрент-файлы, которые содержат только списки хеш-сумм, убедительная просьба с жалобами обращаться напрямую к пользователю. Файлы для обмена на трекере предоставлены пользователями сайта, и администрация не несёт ответственности за их содержание. Просьба не заливать файлы, защищенные авторскими правами, а также файлы нелегального содержания!


    _________________
    [Профиль] [ЛС]
    Показать сообщения:    
    Ответить на тему

    Текущее время: Сегодня, в 01:05

    Часовой пояс: GMT + 2



    Вы не можете начинать темы
    Вы не можете отвечать на сообщения
    Вы не можете редактировать свои сообщения
    Вы не можете удалять свои сообщения
    Вы не можете голосовать в опросах
    Вы не можете прикреплять файлы к сообщениям
    Вы не можете скачивать файлы