BitTorrentTracker PerecTracker.org
BitTorrentTracker PerecTracker.org
    
Регистрация  ·  Вход
 
 · 
Забыли пароль?

  • 5-я волна / The 5th Wave (Дж. Блэйксон / J. Blakeson) [2016, США, Фантастика, боевик, триллер, приключения, WEB-DLRip] Dub (iTunes)

    Ответить на тему
     
    Автор Сообщение

    rechyn

    Создавать темы 06-Апр-2016 04:40

           

    [Цитировать]

    5-я волна / The 5th Wave-Год выхода: 2016
    Выпущено: США / Columbia Pictures
    Жанр: фантастика, боевик, триллер, приключения
    Продолжительность: 01:52:22
    Перевод: Профессиональный (полное дублирование)
    Субтитры: нет-Режиссер:
    Дж. Блэйксон / J. Blakeson-В ролях:
    Хлоя Грэйс Моретц, Ник Дж. Робинсон, Рон Ливингстон, Мэгги Сифф, Алекс Роу, Мария Белло, Майка Монро, Лив Шрайбер, Закари Артур, Тони Револори, Талита Бейтман, Мэттью Зук, Габриела Лопес, Бэйли Энн Бордерс, Дэйв Мальдонадо, Пол Райден, Э. Роджер Митчелл, Чармин Ли, Паркер Вьерлинг, Мэдисон Стэйнс-О фильме:
    Первая волна оставила за собой мглу. От второй успели убежать только самые везучие. Но едва ли можно назвать везучими тех, кто уцелел после третьей. А четвертая волна стерла все человеческие законы, взамен же установила свой, один-единственный: хочешь жить — не верь никому. И вот уже накатывает пятая волна…-Релиз групп
    | | IMDB | КиноПоиск | Сэмпл |-Качество: WEB-DLRip [5TH_WAY_WEB_DL_1080p-BLUEBIRD]
    Формат: AVI
    Видео: 720x304 (2.37:1), 23.976 fps, XviD build 67 ~1464 kbps avg, 0.28 bit/pixel
    Аудио: 48 kHz, AC3 Dolby Digital, 3/2 (L,C,R,l,r) + LFE ch, ~384 kbps avg - iTunes Russia-

    Скриншоты

    MediaInfo

    General
    Complete name                            : D:\5_Volna_2016_WEB-DLRip_iT_by_Dalemake.avi
    Format                                   : AVI
    Format/Info                              : Audio Video Interleave
    File size                                : 1.46 GiB
    Duration                                 : 1h 52mn
    Overall bit rate                         : 1 858 Kbps
    Writing application                      : VirtualDubMod 1.5.10.3 | www.virtualdub-fr.org || (build 2550/release)
    Writing library                          : VirtualDubMod build 2550/release
    Video
    ID                                       : 0
    Format                                   : MPEG-4 Visual
    Format profile                           : Advanced Simple@L5
    Format settings, BVOP                    : 1
    Format settings, QPel                    : No
    Format settings, GMC                     : No warppoints
    Format settings, Matrix                  : Custom
    Codec ID                                 : XVID
    Codec ID/Hint                            : XviD
    Duration                                 : 1h 52mn
    Bit rate                                 : 1 465 Kbps
    Width                                    : 720 pixels
    Height                                   : 304 pixels
    Display aspect ratio                     : 2.35:1
    Frame rate                               : 23.976 (23976/1000) fps
    Color space                              : YUV
    Chroma subsampling                       : 4:2:0
    Bit depth                                : 8 bits
    Scan type                                : Progressive
    Compression mode                         : Lossy
    Bits/(Pixel*Frame)                       : 0.279
    Stream size                              : 1.15 GiB (79%)
    Writing library                          : XviD 67
    Audio
    ID                                       : 1
    Format                                   : AC-3
    Format/Info                              : Audio Coding 3
    Mode extension                           : CM (complete main)
    Format settings, Endianness              : Big
    Codec ID                                 : 2000
    Duration                                 : 1h 52mn
    Bit rate mode                            : Constant
    Bit rate                                 : 384 Kbps
    Channel(s)                               : 6 channels
    Channel positions                        : Front: L C R, Side: L R, LFE
    Sampling rate                            : 48.0 KHz
    Frame rate                               : 31.250 fps (1536 spf)
    Compression mode                         : Lossy
    Stream size                              : 309 MiB (21%)
    Alignment                                : Split accross interleaves
    Interleave, duration                     : 42 ms (1.00 video frame)
    Interleave, preload duration             : 500 ms
    -
    Скачать .torrent

    Скачать торрент-файл бесплатно и на максимальной скорости!

    Как скачивать? · Что такое торрент? · Рейтинг и ограничения

    !ВНИМАНИЕ!
    Сайт не распространяет и не хранит электронные версии произведений, а занимается лишь лишь предоставлением доступа к создаваемому пользователями каталогу ссылок на торрент-файлы, которые содержат только списки хеш-сумм, убедительная просьба с жалобами обращаться напрямую к пользователю. Файлы для обмена на трекере предоставлены пользователями сайта, и администрация не несёт ответственности за их содержание. Просьба не заливать файлы, защищенные авторскими правами, а также файлы нелегального содержания!


    _________________
    [Профиль] [ЛС]
    Показать сообщения:    
    Ответить на тему

    Текущее время: Сегодня, в 10:11

    Часовой пояс: GMT + 2



    Вы не можете начинать темы
    Вы не можете отвечать на сообщения
    Вы не можете редактировать свои сообщения
    Вы не можете удалять свои сообщения
    Вы не можете голосовать в опросах
    Вы не можете прикреплять файлы к сообщениям
    Вы не можете скачивать файлы