BitTorrentTracker PerecTracker.org
BitTorrentTracker PerecTracker.org
    
Регистрация  ·  Вход
 
 · 
Забыли пароль?

  • Джейн берет ружье / Jane Got a Gun (Гэвин О’Коннор / Gavin O\'Connor) [2015, США, боевик, драма, вестерн, HDRip] DVO (Паровоз Продакшн)

    Ответить на тему
     
    Автор Сообщение

    Light

    Создавать темы 06-Апр-2016 04:40

           

    [Цитировать]

    Джейн берет ружье / Jane Got a GunСтрана: США
    Жанр: боевик, драма, вестерн
    Год выпуска: 2015
    Продолжительность: 01:37:59
    Перевод: Любительский (двухголосый закадровый) Паровоз Продакшн
    Cубтитры: нет
    Режиссер: Гэвин О’Коннор / Gavin O'Connor
    В ролях: Натали Портман, Джоэл Эдгертон, Эван МакГрегор, Родриго Санторо, Ноа Эммерик, Бойд Холбрук, Алекс Манетт, Тодд Стэшвик, Джеймс Барнетт, Сэм Куинн
    Описание: Головорезы МакКэна преследуют попытавшегося отбиться от банды Хэма. Изрешеченный пулями, он укрывается на ранчо своей красавицы-жены Джейн. Ей приходится обратиться за защитой к тому, кого она хотела бы видеть меньше всего, — к своему бывшему любовнику. Джейн нужно забыть прошлое, совладать с чувствами и стать сильной и бескомпромиссной, чтобы спасти семью от расправы банды наемников.

    Качество видео: HDRip
    Формат видео: AVI
    Видео кодек: XviD
    Аудио кодек: AC3
    Видео: 720x304 (2.37:1), 23.976 fps, XviD build 50 ~1787 kbps avg, 0.34 bit/pixel
    Аудио: 48 kHz, AC3 Dolby Digital, 2/0 (L,R) ch, ~192 kbps

    MediaInfo

    Полное имя : Джейн берет ружье.avi
    Формат : AVI
    Формат/Информация : Audio Video Interleave
    Размер файла : 1,36 Гбайт
    Продолжительность : 1 ч. 37 м.
    Общий поток : 1989 Кбит/сек
    Программа кодирования : VirtualDubMod 1.5.10.2 (build 2540/release)
    Видео
    Идентификатор : 0
    Формат : MPEG-4 Visual
    Профиль формата : Advanced Simple@L5
    Параметр BVOP формата : 2
    Параметр QPel формата : Нет
    Параметр GMC формата : Без точки перехода
    Параметр матрицы формата : Default (MPEG)
    Идентификатор кодека : XVID
    Идентификатор кодека/Подсказка : XviD
    Продолжительность : 1 ч. 37 м.
    Битрейт : 1787 Кбит/сек
    Ширина : 720 пикселей
    Высота : 304 пикселя
    Соотношение сторон : 2,35:1
    Частота кадров : 23,976 кадра/сек
    Цветовое пространство : YUV
    Субдискретизация насыщенности : 4:2:0
    Битовая глубина : 8 бит
    Тип развёртки : Прогрессивная
    Метод сжатия : С потерями
    Бит/(Пиксели*Кадры) : 0.341
    Размер потока : 1,22 Гбайт (90%)
    Библиотека кодирования : XviD 1.2.1 (UTC 2008-12-04)
    Аудио
    Идентификатор : 1
    Формат : AC-3
    Формат/Информация : Audio Coding 3
    Расширение режима : CM (complete main)
    Параметр Endianness формата : Big
    Идентификатор кодека : 2000
    Продолжительность : 1 ч. 37 м.
    Вид битрейта : Постоянный
    Битрейт : 192 Кбит/сек
    Каналы : 2 канала
    Расположение каналов : Front: L R
    Частота : 48,0 КГц
    Метод сжатия : С потерями
    Размер потока : 135 Мбайт (10%)
    Выравнивание : Разделение по промежуткам
    Продолжительность промежутка : 42 мс. (1,00 видеокадр)
    Время предзагрузки промежутка : 500 мс.

    Скриншоты

    Oтсутствует какая-либо реклама
    Скачать .torrent

    Скачать торрент-файл бесплатно и на максимальной скорости!

    Как скачивать? · Что такое торрент? · Рейтинг и ограничения

    !ВНИМАНИЕ!
    Сайт не распространяет и не хранит электронные версии произведений, а занимается лишь лишь предоставлением доступа к создаваемому пользователями каталогу ссылок на торрент-файлы, которые содержат только списки хеш-сумм, убедительная просьба с жалобами обращаться напрямую к пользователю. Файлы для обмена на трекере предоставлены пользователями сайта, и администрация не несёт ответственности за их содержание. Просьба не заливать файлы, защищенные авторскими правами, а также файлы нелегального содержания!


    _________________
    [Профиль] [ЛС]
    Показать сообщения:    
    Ответить на тему

    Текущее время: Сегодня, в 13:01

    Часовой пояс: GMT + 2



    Вы не можете начинать темы
    Вы не можете отвечать на сообщения
    Вы не можете редактировать свои сообщения
    Вы не можете удалять свои сообщения
    Вы не можете голосовать в опросах
    Вы не можете прикреплять файлы к сообщениям
    Вы не можете скачивать файлы