BitTorrentTracker PerecTracker.org
BitTorrentTracker PerecTracker.org
    
Регистрация  ·  Вход
 
 · 
Забыли пароль?

  • Суфражистка / Suffragette (Сара Гаврон / Sarah Gavron) [2015, Великобритания, драма, биография, история, HDRip] Dub

    Ответить на тему
     
    Автор Сообщение

    Light

    Создавать темы 06-Апр-2016 04:40

           

    [Цитировать]

    Суфражистка / Suffragette
    Страна: Великобритания
    Жанр: драма, биография, история
    Год выпуска: 2015
    Продолжительность: 01:46:33
    Перевод: Профессиональный (дублированный)
    Cубтитры: нет
    Оригинальная аудиодорожка: нет--Режиссер: Сара Гаврон / Sarah Gavron--В ролях: Кэри Маллиган, Хелена Бонем Картер, Брендан Глисон, Энн-Мэри Дафф, Мэрил Стрип, Грэйс Стоттор, Джофф Белл, Аманда Лоуренс, Шелли Лонгуорт, Адам Майкл Додд, Бен Уишоу...--Описание: Фильм посвящен движению суфражисток (борьба за предоставление женщинам избирательных прав), зародившемуся в Великобритании в конце 19 века.--Доп. информация: Kinopoisk | IMDB | Sample |--Качество видео: HDRip
    Формат видео: AVI
    Видео: XviD build 73, 688x288 (2.39:1), 23.976 fps, 839 kbps avg, 0.18 bit/pixel
    Аудио: MPEG Layer 3, 2 ch, 48 kHz, 128.00 kbps avg

    MediaInfo

    General
    Complete name : Suffragette.2015.avi
    Format : AVI
    Format/Info : Audio Video Interleave
    File size : 744 MiB
    Duration : 1h 46mn
    Overall bit rate : 977 Kbps
    Writing application : VirtualDubMod 1.5.10.2 (build 2540/release)
    Writing library : VirtualDubMod build 2540/release
    Video
    ID : 0
    Format : MPEG-4 Visual
    Format profile : Advanced Simple@L5
    Format settings, BVOP : 1
    Format settings, QPel : No
    Format settings, GMC : No warppoints
    Format settings, Matrix : Custom
    Codec ID : XVID
    Codec ID/Hint : XviD
    Duration : 1h 46mn
    Bit rate : 840 Kbps
    Width : 688 pixels
    Height : 288 pixels
    Display aspect ratio : 2.40:1
    Frame rate : 23.976 (23976/1000) fps
    Color space : YUV
    Chroma subsampling : 4:2:0
    Bit depth : 8 bits
    Scan type : Progressive
    Compression mode : Lossy
    Bits/(Pixel*Frame) : 0.177
    Stream size : 640 MiB (86%)
    Writing library : XviD 73
    Audio
    ID : 1
    Format : MPEG Audio
    Format version : Version 1
    Format profile : Layer 3
    Codec ID : 55
    Codec ID/Hint : MP3
    Duration : 1h 46mn
    Bit rate mode : Constant
    Bit rate : 128 Kbps
    Channel(s) : 2 channels
    Sampling rate : 48.0 KHz
    Compression mode : Lossy
    Stream size : 97.2 MiB (13%)
    Alignment : Aligned on interleaves
    Interleave, duration : 42 ms (1.00 video frame)
    Interleave, preload duratio : 504 ms
    Writing library : LAME3.99r
    Encoding settings : -m s -V 4 -q 2 -lowpass 17 -b 128

    Скриншоты

    Скачать .torrent

    Скачать торрент-файл бесплатно и на максимальной скорости!

    Как скачивать? · Что такое торрент? · Рейтинг и ограничения

    !ВНИМАНИЕ!
    Сайт не распространяет и не хранит электронные версии произведений, а занимается лишь лишь предоставлением доступа к создаваемому пользователями каталогу ссылок на торрент-файлы, которые содержат только списки хеш-сумм, убедительная просьба с жалобами обращаться напрямую к пользователю. Файлы для обмена на трекере предоставлены пользователями сайта, и администрация не несёт ответственности за их содержание. Просьба не заливать файлы, защищенные авторскими правами, а также файлы нелегального содержания!


    _________________
    [Профиль] [ЛС]
    Показать сообщения:    
    Ответить на тему

    Текущее время: Сегодня, в 20:25

    Часовой пояс: GMT + 2



    Вы не можете начинать темы
    Вы не можете отвечать на сообщения
    Вы не можете редактировать свои сообщения
    Вы не можете удалять свои сообщения
    Вы не можете голосовать в опросах
    Вы не можете прикреплять файлы к сообщениям
    Вы не можете скачивать файлы