BitTorrentTracker PerecTracker.org
BitTorrentTracker PerecTracker.org
    
Регистрация  ·  Вход
 
 · 
Забыли пароль?

  • (Rap,Hip-Hop) [CD] Jay-Z - Vol. 3... Life And Times Of S. Carter (EU Edition) - 1999, FLAC (image+.cue), lossless

    Ответить на тему
     
    Автор Сообщение

    Columb

    Создавать темы 20-Янв-2014 07:55

           

    [Цитировать]

    Jay-Z / Vol. 3... Life And Times Of S. Carter (EU Edition)
    Жанр: Rap,Hip-Hop
    Носитель: CD
    Страна-производитель диска: Europe
    Год издания: 1999
    Издатель (лейбл): Roc-A-Fella Records ‎/ Def Jam Recordin
    Номер по каталогу: 546 815-2
    Страна: USA
    Аудиокодек: FLAC (*.flac)
    Тип рипа: image+.cue
    Битрейт аудио: lossless
    Продолжительность: 01:14:15
    Источник (релизер): Собственный диск
    Наличие сканов в содержимом раздачи: нет
    Треклист:
    1 Hova Song (Intro)
    2 So Ghetto
    3 Do It Again (Put Ya Hands Up) (Feat. Amil & Beanie Sigel)
    4 Dope Man (Feat. Serena Altschul)
    5 Things That U Do (Feat. Mariah Carey)
    6 It's Hot (Some Like It Hot)
    7 Snoopy Track (Feat. Juvenile)
    8 S. Carter (Feat. Amil)
    9 Pop 4 Roc (Feat. Amil, Beanie Sigel, Memphis Bleek)
    10 Hova Interlude
    11 Big Pimpin' (Feat. UGK)
    12 Is That Yo Bitch (Feat. Missy "Misdemeanor" Elliott & Twista)
    13 Come And Get Me
    14 NYMP
    15 Hova Song (Outro)
    16.1 Anything
    16.2 Jigga My Nigga
    16.3 Girl's Best Friend (Feat. Theresa Rodriguez)

    Лог создания рипа

    Exact Audio Copy V1.0 beta 3 from 29. August 2011
    Отчёт EAC об извлечении, выполненном 19. января 2014, 17:23
    Jay-Z / Vol. 3... Life And Times Of S. Carter
    Дисковод: HL-DT-STDVDRAM GSA-T50N Adapter: 2 ID: 0
    Режим чтения : ДостоверностьИспользование точного потока : ДаОтключение кэша аудио : ДаИспользование указателей C2 : Нет
    Коррекция смещения при чтении : 667Способность читать области Lead-in и Lead-out : НетЗаполнение пропущенных сэмплов тишиной : ДаУдаление блоков с тишиной в начале и конце : НетПри вычислениях CRC использовались нулевые сэмплы : ДаИнтерфейс : Встроенный Win32-интерфейс для Win NT/2000
    Выходной формат : Пользовательский кодировщикВыбранный битрейт : 1024 kBit/sКачество : ВысокийДобавление ID3-тега : НетУтилита сжатия : C:\Program Files\Exact Audio Copy\Flac\FLAC.EXEДополнительные параметры : -6 -V -T "ARTIST=%artist%" -T "TITLE=%title%" -T "ALBUM=%albumtitle%" -T "DATE=%year%" -T "TRACKNUMBER=%tracknr%" -T "GENRE=%genre%" -T "COMMENT=%comment%" -T "BAND=%albuminterpret%" -T "ALBUMARTIST=%albuminterpret%" -T "COMPOSER=%composer%" %haslyrics%--tag-from-file=LYRICS="%lyricsfile%"%haslyrics% -T "DISCNUMBER=%cdnumber%" -T "TOTALDISCS=%totalcds%" -T "TOTALTRACKS=%numtracks%" %hascover%--picture="%coverfile%"%hascover% %source% -o %dest%
    TOC извлечённого CD
    Трек | Старт | Длительность | Начальный сектор | Конечный сектор --------------------------------------------------------------------- 1 | 0:00.00 | 2:20.65 | 0 | 10564 2 | 2:20.65 | 4:00.60 | 10565 | 28624 3 | 6:21.50 | 4:38.40 | 28625 | 49514 4 | 11:00.15 | 4:02.62 | 49515 | 67726 5 | 15:03.02 | 4:52.30 | 67727 | 89656 6 | 19:55.32 | 4:15.35 | 89657 | 108816 7 | 24:10.67 | 4:01.28 | 108817 | 126919 8 | 28:12.20 | 4:14.25 | 126920 | 145994 9 | 32:26.45 | 4:34.60 | 145995 | 166604 10 | 37:01.30 | 1:33.47 | 166605 | 173626 11 | 38:35.02 | 4:43.05 | 173627 | 194856 12 | 43:18.07 | 4:34.13 | 194857 | 215419 13 | 47:52.20 | 6:42.65 | 215420 | 245634 14 | 54:35.10 | 4:01.70 | 245635 | 263779 15 | 58:37.05 | 1:17.25 | 263780 | 269579 16 | 59:54.30 | 14:21.32 | 269580 | 334186
    Характеристики диапазона извлечения и сообщения об ошибках
    Выбранный диапазон
    Имя файла D:\Документы\КОНВЕРТЕР MP3\Jay-Z - Vol. 3... Life And Times Of S. Carter.wav
    Пиковый уровень 98.8 % Скорость извлечения 3.9 X Качество диапазона 99.9 % CRC теста A97E4CF0 CRC копии A97E4CF0 Копирование... OK
    Ошибок не произошло
    Конец отчёта
    ==== Контрольная сумма отчёта EFB0C676B2A286BB64CD500430A888940E37A4883C1F76C6E1BBF3A23E6DD926 ====

    Об альбоме (сборнике)

    This is the original version of the album that features "Anything", "Is That Yo Bitch" and "Hova Song (Interlude)" as the first bootleg. The ordinary retail replaces these songs with "Watch Me" and "There's Been A Murder". This is a retail release however, it's not a promo.
    The hidden songs appears on track 16 with a total of 14:21
    Скачать .torrent

    Скачать торрент-файл бесплатно и на максимальной скорости!

    Как скачивать? · Что такое торрент? · Рейтинг и ограничения

    !ВНИМАНИЕ!
    Сайт не распространяет и не хранит электронные версии произведений, а занимается лишь лишь предоставлением доступа к создаваемому пользователями каталогу ссылок на торрент-файлы, которые содержат только списки хеш-сумм, убедительная просьба с жалобами обращаться напрямую к пользователю. Файлы для обмена на трекере предоставлены пользователями сайта, и администрация не несёт ответственности за их содержание. Просьба не заливать файлы, защищенные авторскими правами, а также файлы нелегального содержания!

    [Профиль] [ЛС]
    Показать сообщения:    
    Ответить на тему

    Текущее время: Сегодня, в 23:51

    Часовой пояс: GMT + 2



    Вы не можете начинать темы
    Вы не можете отвечать на сообщения
    Вы не можете редактировать свои сообщения
    Вы не можете удалять свои сообщения
    Вы не можете голосовать в опросах
    Вы не можете прикреплять файлы к сообщениям
    Вы не можете скачивать файлы