BitTorrentTracker PerecTracker.org
BitTorrentTracker PerecTracker.org
    
Регистрация  ·  Вход
 
 · 
Забыли пароль?

  • Год Дракона / Year of the Dragon (Майкл Чимино / Michael Cimino) [1985, США, боевик, триллер, драма, криминал, WEB-DL 720p] MVO (R5) + 3x DVO (РЕН-ТВ, НТВ+, Совенчер) + 4x AVO (Немахов, Михалёв, Гаврилов, Володарский) + Original Eng + Sub Rus, Eng

    Ответить на тему
     
    Автор Сообщение

    Light

    Создавать темы 06-Апр-2016 00:26

           

    [Цитировать]

    Год Дракона / Year of the Dragon-Год выпуска: 1985
    Страна: США
    Студия: AMLF, Dino De Laurentiis Company, Metro-Goldwyn-Mayer (MGM)
    Жанр: боевик, триллер, драма, криминал
    Продолжительность: 02:14:21
    Перевод:
    • Профессиональный (многоголосый закадровый) R5 / Neoclassica
    • Профессиональный (двухголосый закадровый) РЕН-ТВ
    • Профессиональный (двухголосый закадровый) НТВ+
    • Профессиональный (двухголосый закадровый) фирма "СВ-Кадр" на тонстудии "Мосфильм" по заказу МНВК в 1997 году |VHS|
    • Авторский (одноголосый закадровый) Юрий Немахов
    • Авторский (одноголосый закадровый) Алексей Михалёв
    • Авторский (одноголосый закадровый) Андрей Гаврилов
    • Авторский (одноголосый закадровый) Леонид Володарский
    Cубтитры: русские, английские
    Оригинальная аудиодорожка: английский
    -Режиссер: Майкл Чимино / Michael Cimino-В ролях: Микки Рурк, Джон Лоун, Эриан, Леонард Термо, Рэймонд Дж. Бэрри, Кэролайн Кэва, Эдди Джонс, Джои Чин, Виктор Вонг, К. Док Ип и другие.-Роли озвучивали:
    • R5: Александр Коврижных, Александр Гаврилин, Александр Быков, Андрей Гриневич, Валерий Сторожик, Людмила Шувалова, Лариса Некипелова.
    • РЕН-ТВ: Александр Рахленко, Наталья Казначеева.
    • НТВ+: Ирина Савина, Игорь Тарадайкин.
    • СВ-Кадр / Совенчер: Наталья Гурзо, Игорь Тарадайкин.
    -Описание: В глубоком лабиринте Нью — Йорка скрывается Китайский квартал — рассадник Триады, тысячелетней криминальной угрозы миру. Джой Тай, ее новый крестный отец, ожесточает раздел территорий азиатской и итальянской наркомафий. Улицы обагряются кровью его врагов. Но в дела Китайского квартала напролом вторгается капитан полиции Стэнли Уайт, ветеран вьетнамской войны. Он бессердечен и бесстрастен. Он — сжатый кулак. Он объявляет преступному беспределу бескомпромиссную войну…-РЕЛИЗ ОТ: V.SERIJ2013-

    Спасибо

    • Шурпету - за DVD-издание Neoclassica
    • alenavova - за запись звука с телеканала РЕН-ТВ и аудиодорожку с авторским переводом Алексея Михалёва
    • xfiles - за запись аудиодорожки НТВ+ с телеканала MGM HD
    • Fikaloid - за оцифровку VHS-издания Совенчер
    • kamgor - за аудиодорожки с авторскими переводами Юрия Немахова, Андрея Гаврилова и Леонида Володарского
    • v.serij2013 (т.е., мне) - за обработку и сведение.
    -Качество: WEB-DL 720p |FGT|
    Формат: MKV
    Видео кодек: H.264
    Аудио кодек: AC3
    Видео: H.264, 1280x536 (2.40:1), 23.976 fps, ~3907 kbps, 0.238 bit/pixel
    Аудио:
    • русская |R5|: AC3, 48 kHz, 2 ch, 192 kbps
      русская |РЕН-ТВ|: AC3, 48 kHz, 2 ch, 192 kbps
      русская |НТВ+|: AC3, 48 kHz, 2 ch, 192 kbps
      русская |СВ-Кадр / Совенчер|: AC3, 48 kHz, 1 ch, 256 kbps
      русская |Юрий Немахов|: AC3, 48 kHz, 6 ch, 384 kbps
      русская |Алексей Михалёв|: AC3, 48 kHz, 2 ch, 256 kbps
      русская |Андрей Гаврилов|: AC3, 48 kHz, 2 ch, 256 kbps
      русская |Леонид Володарский|: AC3, 48 kHz, 2 ch, 256 kbps
    • английская |Оригинал|: AC3, 48 kHz, 6 ch, 384 kbps
    -Сэмпл \ Кинопоиск-

    Скриншоты

    Media Info

    General
    Unique ID                      : 203383532631819045751135410679425949696 (0x99023E5A8B32C5668F4F0AE8C1766000)
    Complete name                  : E:\Video\HD\Movies (HD)\Year of the Dragon (1985) (WEB-DL 720p).mkv
    Format                         : Matroska
    Format version                 : Version 4 / Version 2
    File size                      : 6.01 GiB
    Duration                       : 2h 14mn
    Overall bit rate               : 6 403 Kbps
    Encoded date                   : UTC 2016-04-02 15:17:54
    Writing application            : mkvmerge v8.8.0 ('Wind at my back') 32bit
    Writing library                : libebml v1.3.3 + libmatroska v1.4.4
    DURATION                       : 02:09:38.065000000
    NUMBER_OF_FRAMES               : 1596
    NUMBER_OF_BYTES                : 102683
    _STATISTICS_WRITING_APP        : mkvmerge v8.8.0 ('Wind at my back') 32bit
    _STATISTICS_WRITING_DATE_UTC   : 2016-04-02 15:17:54
    _STATISTICS_TAGS               : BPS DURATION NUMBER_OF_FRAMES NUMBER_OF_BYTES
    Video
    ID                             : 1
    Format                         : AVC
    Format/Info                    : Advanced Video Codec
    Format profile                 : Main@L3.1
    Format settings, CABAC         : No
    Format settings, ReFrames      : 2 frames
    Codec ID                       : V_MPEG4/ISO/AVC
    Duration                       : 2h 14mn
    Bit rate                       : 3 907 Kbps
    Width                          : 1 280 pixels
    Height                         : 536 pixels
    Display aspect ratio           : 2.40:1
    Frame rate mode                : Constant
    Frame rate                     : 23.976 fps
    Color space                    : YUV
    Chroma subsampling             : 4:2:0
    Bit depth                      : 8 bits
    Scan type                      : Progressive
    Bits/(Pixel*Frame)             : 0.238
    Stream size                    : 3.67 GiB (61%)
    Language                       : English
    Default                        : Yes
    Forced                         : No
    Color primaries                : BT.709
    Transfer characteristics       : BT.709
    Matrix coefficients            : BT.709
    Color range                    : Limited
    Audio #1
    ID                             : 2
    Format                         : AC-3
    Format/Info                    : Audio Coding 3
    Mode extension                 : CM (complete main)
    Format settings, Endianness    : Big
    Codec ID                       : A_AC3
    Duration                       : 2h 14mn
    Bit rate mode                  : Constant
    Bit rate                       : 192 Kbps
    Channel(s)                     : 2 channels
    Channel positions              : Front: L R
    Sampling rate                  : 48.0 KHz
    Bit depth                      : 16 bits
    Compression mode               : Lossy
    Stream size                    : 185 MiB (3%)
    Title                          : MVO (R5 / Neoclassica)
    Language                       : Russian
    Default                        : Yes
    Forced                         : No
    Audio #2
    ID                             : 3
    Format                         : AC-3
    Format/Info                    : Audio Coding 3
    Mode extension                 : CM (complete main)
    Format settings, Endianness    : Big
    Codec ID                       : A_AC3
    Duration                       : 2h 14mn
    Bit rate mode                  : Constant
    Bit rate                       : 192 Kbps
    Channel(s)                     : 2 channels
    Channel positions              : Front: L R
    Sampling rate                  : 48.0 KHz
    Bit depth                      : 16 bits
    Compression mode               : Lossy
    Stream size                    : 185 MiB (3%)
    Title                          : DVO (РЕН-ТВ)
    Language                       : Russian
    Default                        : No
    Forced                         : No
    Audio #3
    ID                             : 4
    Format                         : AC-3
    Format/Info                    : Audio Coding 3
    Mode extension                 : CM (complete main)
    Format settings, Endianness    : Big
    Codec ID                       : A_AC3
    Duration                       : 2h 14mn
    Bit rate mode                  : Constant
    Bit rate                       : 192 Kbps
    Channel(s)                     : 2 channels
    Channel positions              : Front: L R
    Sampling rate                  : 48.0 KHz
    Bit depth                      : 16 bits
    Compression mode               : Lossy
    Stream size                    : 185 MiB (3%)
    Title                          : DVO (НТВ+)
    Language                       : Russian
    Default                        : No
    Forced                         : No
    Audio #4
    ID                             : 5
    Format                         : AC-3
    Format/Info                    : Audio Coding 3
    Mode extension                 : CM (complete main)
    Format settings, Endianness    : Big
    Codec ID                       : A_AC3
    Duration                       : 2h 14mn
    Bit rate mode                  : Constant
    Bit rate                       : 256 Kbps
    Channel(s)                     : 1 channel
    Channel positions              : Front: C
    Sampling rate                  : 48.0 KHz
    Bit depth                      : 16 bits
    Compression mode               : Lossy
    Stream size                    : 246 MiB (4%)
    Title                          : DVO (СВ-Кадр / Совенчер)
    Language                       : Russian
    Default                        : No
    Forced                         : No
    Audio #5
    ID                             : 6
    Format                         : AC-3
    Format/Info                    : Audio Coding 3
    Mode extension                 : CM (complete main)
    Format settings, Endianness    : Big
    Codec ID                       : A_AC3
    Duration                       : 2h 14mn
    Bit rate mode                  : Constant
    Bit rate                       : 384 Kbps
    Channel(s)                     : 6 channels
    Channel positions              : Front: L C R, Side: L R, LFE
    Sampling rate                  : 48.0 KHz
    Bit depth                      : 16 bits
    Compression mode               : Lossy
    Stream size                    : 369 MiB (6%)
    Title                          : AVO (Юрий Немахов)
    Language                       : Russian
    Default                        : No
    Forced                         : No
    Audio #6
    ID                             : 7
    Format                         : AC-3
    Format/Info                    : Audio Coding 3
    Mode extension                 : CM (complete main)
    Format settings, Endianness    : Big
    Codec ID                       : A_AC3
    Duration                       : 2h 14mn
    Bit rate mode                  : Constant
    Bit rate                       : 256 Kbps
    Channel(s)                     : 2 channels
    Channel positions              : Front: L R
    Sampling rate                  : 48.0 KHz
    Bit depth                      : 16 bits
    Compression mode               : Lossy
    Stream size                    : 246 MiB (4%)
    Title                          : AVO (Алексей Михалёв)
    Language                       : Russian
    Default                        : No
    Forced                         : No
    Audio #7
    ID                             : 8
    Format                         : AC-3
    Format/Info                    : Audio Coding 3
    Mode extension                 : CM (complete main)
    Format settings, Endianness    : Big
    Codec ID                       : A_AC3
    Duration                       : 2h 14mn
    Bit rate mode                  : Constant
    Bit rate                       : 256 Kbps
    Channel(s)                     : 2 channels
    Channel positions              : Front: L R
    Sampling rate                  : 48.0 KHz
    Bit depth                      : 16 bits
    Compression mode               : Lossy
    Stream size                    : 246 MiB (4%)
    Title                          : AVO (Андрей Гаврилов)
    Language                       : Russian
    Default                        : No
    Forced                         : No
    Audio #8
    ID                             : 9
    Format                         : AC-3
    Format/Info                    : Audio Coding 3
    Mode extension                 : CM (complete main)
    Format settings, Endianness    : Big
    Codec ID                       : A_AC3
    Duration                       : 2h 14mn
    Bit rate mode                  : Constant
    Bit rate                       : 256 Kbps
    Channel(s)                     : 2 channels
    Channel positions              : Front: L R
    Sampling rate                  : 48.0 KHz
    Bit depth                      : 16 bits
    Compression mode               : Lossy
    Stream size                    : 246 MiB (4%)
    Title                          : AVO (Леонид Володарский)
    Language                       : Russian
    Default                        : No
    Forced                         : No
    Audio #9
    ID                             : 10
    Format                         : AC-3
    Format/Info                    : Audio Coding 3
    Mode extension                 : CM (complete main)
    Format settings, Endianness    : Big
    Codec ID                       : A_AC3
    Duration                       : 2h 14mn
    Bit rate mode                  : Constant
    Bit rate                       : 384 Kbps
    Channel(s)                     : 6 channels
    Channel positions              : Front: L C R, Side: L R, LFE
    Sampling rate                  : 48.0 KHz
    Bit depth                      : 16 bits
    Compression mode               : Lossy
    Stream size                    : 369 MiB (6%)
    Title                          : Original
    Language                       : English
    Default                        : No
    Forced                         : No
    Text #1
    ID                             : 11
    Format                         : UTF-8
    Codec ID                       : S_TEXT/UTF8
    Codec ID/Info                  : UTF-8 Plain Text
    Language                       : Russian
    Default                        : No
    Forced                         : No
    Text #2
    ID                             : 12
    Format                         : UTF-8
    Codec ID                       : S_TEXT/UTF8
    Codec ID/Info                  : UTF-8 Plain Text
    Language                       : English
    Default                        : No
    Forced                         : No
    Menu
    00:00:00.000                   : en:Credits.
    00:02:07.000                   : en:Two killings.
    00:06:35.000                   : en:White's New Command.
    00:10:49.000                   : en:Not Beyond the Law.
    00:16:45.000                   : en:Nobody Likes You.
    00:19:54.000                   : en:Home Repairs Needed.
    00:24:34.000                   : en:Things Chinese.
    00:28:41.000                   : en:Restaurant Rampage.
    00:33:18.000                   : en:Losing Face and Profits.
    00:37:06.000                   : en:Commissioner's Orders.
    00:39:51.000                   : en:Pointed Guns.
    00:43:07.000                   : en:No Respect.
    00:47:19.000                   : en:Gonna Burn You Down.
    00:54:34.000                   : en:Tracy's Place.
    01:00:18.000                   : en:Chaos.
    01:04:38.000                   : en:Flying Too High.
    01:07:44.000                   : en:Drug Talk.
    01:10:38.000                   : en:Between Guys.
    01:15:05.000                   : en:His Only Friend.
    01:20:20.000                   : en:Bangkok.
    01:22:33.000                   : en:Home Invasion.
    01:27:49.000                   : en:Old Friends.
    01:32:00.000                   : en:Tell Ma Himself.
    01:35:32.000                   : en:Connie's Funeral.
    01:39:20.000                   : en:What Killed Connie.
    01:41:41.000                   : en:To the Limit.
    01:47:21.000                   : en:Risk vs. Reward.
    01:50:35.000                   : en:Shot for Shot.
    01:55:20.000                   : en:How Many More People?
    02:01:53.000                   : en:Shipyard Showdown.
    02:05:16.000                   : en:Bullet Express.
    02:07:35.000                   : en:Be A Cop Again.
    02:10:31.000                   : en:End Credits.
    -
    Скачать .torrent

    Скачать торрент-файл бесплатно и на максимальной скорости!

    Как скачивать? · Что такое торрент? · Рейтинг и ограничения

    !ВНИМАНИЕ!
    Сайт не распространяет и не хранит электронные версии произведений, а занимается лишь лишь предоставлением доступа к создаваемому пользователями каталогу ссылок на торрент-файлы, которые содержат только списки хеш-сумм, убедительная просьба с жалобами обращаться напрямую к пользователю. Файлы для обмена на трекере предоставлены пользователями сайта, и администрация не несёт ответственности за их содержание. Просьба не заливать файлы, защищенные авторскими правами, а также файлы нелегального содержания!


    _________________
    [Профиль] [ЛС]
    Показать сообщения:    
    Ответить на тему

    Текущее время: Сегодня, в 08:26

    Часовой пояс: GMT + 2



    Вы не можете начинать темы
    Вы не можете отвечать на сообщения
    Вы не можете редактировать свои сообщения
    Вы не можете удалять свои сообщения
    Вы не можете голосовать в опросах
    Вы не можете прикреплять файлы к сообщениям
    Вы не можете скачивать файлы