BitTorrentTracker PerecTracker.org
BitTorrentTracker PerecTracker.org
    
Регистрация  ·  Вход
 
 · 
Забыли пароль?

  • В центре внимания / Spotlight (Том МакКарти / Tom McCarthy) [2015, США, триллер, драма, биография, история, BDRip 1080p] MVO + VO (Есарев) + Sub Rus, Eng + Original Eng

    Ответить на тему
     
    Автор Сообщение

    Light

    Создавать темы 06-Апр-2016 00:26

           

    [Цитировать]

    -В центре внимания / Spotlight-Страна: США
    Жанр: Триллер, Драма, Биография, История
    Год выпуска: 2015
    Продолжительность: 02:09:08-Перевод: Профессиональный (многоголосый закадровый) BD Rus
    Перевод 2: Одноголосый закадровый Дмитрий Есарев
    Cубтитры: русские, английские
    Оригинальная аудиодорожка: английский-Режиссер: Том МакКарти / Tom McCarthy
    В ролях: Марк Руффало, Майкл Китон, Рэйчел МакАдамс, Лив Шрайбер, Джон Слэттери, Стэнли Туччи, Брайан Д’Арси Джеймс, Елена Стайтелер, Джин Аморозо, Даг Мюррэй, Шэрон МакФарлэйн, Джейми Шеридан, Нил Хафф, Билли Крадап, Роберт Б. Кеннеди, Дуан Мюррэй, Брайан Чемберлен, Майкл Сирил Крейтон, Пол Гилфойл, Майкл Кантримэн-Описание: Основанная на реальных событиях история журналистского расследования одного из самых громких в истории США секс-скандалов. Корреспонденты бостонской газеты разоблачают случаи педофилии, в которых обвиняются представители Церкви…-Сэмпл-Тип релиза: BDRip 1080p
    Контейнер: MKV
    Видео: MPEG-4 AVC, 1920x1038 (1.85:1), 23.976 fps, ~18761 kbps (59% of source)
    Аудио: DTS Master Audio Russian 5.1 / 48 kHz / 1509 kbps | BD Rus
    Аудио 2: DTS Master Audio Russian 5.1 / 48 kHz / 1509 kbps | Дмитрий Есарев
    Аудио 3: DTS Master Audio English 5.1 / 48 kHz / 1509 kbps
    Формат субтитров: softsub (SRT)

    Видеоряд от Chotab

    Chotab presents...
    - What are you watching?
    Spotlight (2015)Director: Tom McCarthyRuntime: 128 minGenre: Biography | Drama | HistoryIMDb Rating: 8.2/10IMDB Link: Subtitles: EnglishChapters: YesSource: Spotlight 2015 1080p Blu-ray AVC DTS-HD MA 5.1-BAKEDFile Size: 18.2 GB
    - How does it look?
    Codec: x264 kMod r2665 @ L4.1Resolution: 1920 x 1038 (1.85:1)Bitrate: 18761 kbps (CRF 18)Frame Rate: 23.976 fps
    - How does it sound?
    Track #1: English (DTS 5.1 @ 1509 kbps)
    - What's it about?
    The true story of how the Boston Globe uncovered the massive scandal of child molestation and cover-up within the local Catholic Archdiocese, shaking the entire Catholic Church to its core.
    - x264 Info?
    --level 4.1 --preset veryslow --deblock -3:-3 --qcomp 0.65 --ip-ratio 1.3 --pb-ratio 1.2 --bframes 10 --no-mbtree --aq-mode 3 --aq-strength 0.8 --merange 64 --psy-rd 1.05:0x264 [info]: frame I:1260 Avg QP:16.22 size:261775x264 [info]: frame P:37366 Avg QP:16.08 size:127506x264 [info]: frame B:147144 Avg QP:18.50 size: 88869x264 [info]: consecutive B-frames: 3.1% 2.2% 3.3% 3.8% 10.1% 65.9% 7.0% 1.8% 2.8%encoded 185770 frames, 6.75 fps, 18761.32 kb/s
    Source vs. Chotab



    MI

    GeneralUnique ID : 247992171541019517577295597105929396071 (0xBA918E0EDF880AAAB32C48894C121F67)Complete name : S:\На хранении\В центре внимания (2015. Spotlight).mkvFormat : MatroskaFormat version : Version 4 / Version 2File size : 21.0 GiBDuration : 2h 9mnOverall bit rate : 23.3 MbpsMovie name : Release for RuTrackerEncoded date : UTC 2016-04-04 15:35:15Writing application : mkvmerge v9.0.1 ('Obstacles') 64bitWriting library : libebml v1.3.3 + libmatroska v1.4.4Cover : YesAttachments : cover.jpg
    VideoID : 1Format : AVCFormat/Info : Advanced Video CodecFormat profile : High@L4.1Format settings, CABAC : YesFormat settings, ReFrames : 4 framesCodec ID : V_MPEG4/ISO/AVCDuration : 2h 9mnBit rate : 18.8 MbpsWidth : 1 920 pixelsHeight : 1 038 pixelsDisplay aspect ratio : 1.85:1Frame rate mode : ConstantFrame rate : 23.976 (24000/1001) fpsColor space : YUVChroma subsampling : 4:2:0Bit depth : 8 bitsScan type : ProgressiveBits/(Pixel*Frame) : 0.393Stream size : 16.9 GiB (81%)Title : Spotlight (2015) 1080p BluRay DTS x264-ChotabWriting library : x264 core 148 r2665 a01e339Encoding settings : cabac=1 / ref=4 / deblock=1:-3:-3 / analyse=0x3:0x133 / me=umh / subme=10 / psy=1 / psy_rd=1.05:0.00 / mixed_ref=1 / me_range=64 / chroma_me=1 / trellis=2 / 8x8dct=1 / cqm=0 / deadzone=21,11 / fast_pskip=0 / chroma_qp_offset=-2 / threads=18 / lookahead_threads=3 / sliced_threads=0 / nr=0 / decimate=0 / interlaced=0 / bluray_compat=0 / constrained_intra=0 / bframes=8 / b_pyramid=2 / b_adapt=2 / b_bias=0 / direct=3 / weightb=1 / open_gop=0 / weightp=2 / keyint=240 / keyint_min=23 / scenecut=40 / intra_refresh=0 / rc_lookahead=60 / rc=crf / mbtree=0 / crf=18.0 / qcomp=0.65 / qpmin=0 / qpmax=69 / qpstep=4 / vbv_maxrate=62500 / vbv_bufsize=78125 / crf_max=0.0 / nal_hrd=none / filler=0 / ip_ratio=1.30 / pb_ratio=1.20 / aq=3:0.80Language : EnglishDefault : YesForced : NoColor range : LimitedColor primaries : BT.709Transfer characteristics : BT.709Matrix coefficients : BT.709
    Audio #1ID : 2Format : DTSFormat/Info : Digital Theater SystemsMode : 16Format settings, Endianness : BigCodec ID : A_DTSDuration : 2h 9mnBit rate mode : ConstantBit rate : 1 509 KbpsChannel(s) : 6 channelsChannel positions : Front: L C R, Side: L R, LFESampling rate : 48.0 KHzFrame rate : 93.750 fps (512 spf)Bit depth : 16 bitsCompression mode : LossyStream size : 1.36 GiB (6%)Title : MVO [Blu-Ray]Language : RussianDefault : YesForced : No
    Audio #2ID : 3Format : DTSFormat/Info : Digital Theater SystemsMode : 16Format settings, Endianness : BigCodec ID : A_DTSDuration : 2h 9mnBit rate mode : ConstantBit rate : 1 509 KbpsChannel(s) : 6 channelsChannel positions : Front: L C R, Side: L R, LFESampling rate : 48.0 KHzFrame rate : 93.750 fps (512 spf)Bit depth : 24 bitsCompression mode : LossyStream size : 1.36 GiB (6%)Title : Дмитрий ЕсаревLanguage : RussianDefault : NoForced : No
    Audio #3ID : 4Format : DTSFormat/Info : Digital Theater SystemsMode : 16Format settings, Endianness : BigCodec ID : A_DTSDuration : 2h 9mnBit rate mode : ConstantBit rate : 1 509 KbpsChannel(s) : 6 channelsChannel positions : Front: L C R, Side: L R, LFESampling rate : 48.0 KHzFrame rate : 93.750 fps (512 spf)Bit depth : 24 bitsCompression mode : LossyStream size : 1.36 GiB (6%)Language : EnglishDefault : NoForced : No
    Text #1ID : 5Format : UTF-8Codec ID : S_TEXT/UTF8Codec ID/Info : UTF-8 Plain TextDuration : 2h 0mnBit rate : 156 bpsCount of elements : 2091Stream size : 138 KiB (0%)Title : v1Language : RussianDefault : NoForced : No
    Text #2ID : 6Format : UTF-8Codec ID : S_TEXT/UTF8Codec ID/Info : UTF-8 Plain TextDuration : 1h 59mnBit rate : 153 bpsCount of elements : 2094Stream size : 135 KiB (0%)Title : v2Language : RussianDefault : NoForced : No
    Text #3ID : 7Format : UTF-8Codec ID : S_TEXT/UTF8Codec ID/Info : UTF-8 Plain TextDuration : 1h 59mnBit rate : 90 bpsCount of elements : 2321Stream size : 78.9 KiB (0%)Language : EnglishDefault : NoForced : No
    Text #4ID : 8Format : UTF-8Codec ID : S_TEXT/UTF8Codec ID/Info : UTF-8 Plain TextDuration : 1h 59mnBit rate : 93 bpsCount of elements : 2400Stream size : 81.3 KiB (0%)Title : SDHLanguage : EnglishDefault : NoForced : No
    Menu00:00:00.000 : en:00:00:00.00000:08:20.750 : en:00:08:20.75000:14:30.536 : en:00:14:30.53600:21:51.519 : en:00:21:51.51900:27:38.907 : en:00:27:38.90700:35:48.772 : en:00:35:48.77200:45:38.986 : en:00:45:38.98600:49:12.199 : en:00:49:12.19900:53:21.156 : en:00:53:21.15600:59:36.573 : en:00:59:36.57301:05:29.217 : en:01:05:29.21701:10:47.535 : en:01:10:47.53501:17:30.688 : en:01:17:30.68801:23:30.047 : en:01:23:30.04701:30:03.148 : en:01:30:03.14801:34:27.495 : en:01:34:27.49501:42:52.541 : en:01:42:52.54101:50:57.943 : en:01:50:57.94301:55:50.110 : en:01:55:50.11002:01:30.575 : en:02:01:30.575
    Скриншоты

    Зеркало


    Цитата:
    Цитата:

    • За дубляж спасибо HDClub.
    • перевод Д.Есарева доступен благодаря пользователям: RW, shandorra, mv73, Shrooms, kidman644, guinness, shagrath88, J. Green, RafL, uuppi, ana2363. Работа со звуком Переводман
    • За русские субтитры спасибо Нотабеноид. В раздаче две разные редакции, они немного отличаются как по переводу, так и по таймингам.
    Скачать .torrent

    Скачать торрент-файл бесплатно и на максимальной скорости!

    Как скачивать? · Что такое торрент? · Рейтинг и ограничения

    !ВНИМАНИЕ!
    Сайт не распространяет и не хранит электронные версии произведений, а занимается лишь лишь предоставлением доступа к создаваемому пользователями каталогу ссылок на торрент-файлы, которые содержат только списки хеш-сумм, убедительная просьба с жалобами обращаться напрямую к пользователю. Файлы для обмена на трекере предоставлены пользователями сайта, и администрация не несёт ответственности за их содержание. Просьба не заливать файлы, защищенные авторскими правами, а также файлы нелегального содержания!


    _________________
    [Профиль] [ЛС]
    Показать сообщения:    
    Ответить на тему

    Текущее время: Сегодня, в 10:35

    Часовой пояс: GMT + 2



    Вы не можете начинать темы
    Вы не можете отвечать на сообщения
    Вы не можете редактировать свои сообщения
    Вы не можете удалять свои сообщения
    Вы не можете голосовать в опросах
    Вы не можете прикреплять файлы к сообщениям
    Вы не можете скачивать файлы