BitTorrentTracker PerecTracker.org
BitTorrentTracker PerecTracker.org
    
Регистрация  ·  Вход
 
 · 
Забыли пароль?

  • В центре внимания / Spotlight (Том МакКарти / Tom McCarthy) [2015, США, триллер, драма, биография, история, BDRemux 1080p] MVO + VO (Есарев) + Sub Rus, Eng + Original Eng

    Ответить на тему
     
    Автор Сообщение

    Light

    Создавать темы 06-Апр-2016 00:26

           

    [Цитировать]

    -В центре внимания / Spotlight-Страна: США
    Жанр: Триллер, Драма, Биография, История
    Год выпуска: 2015
    Продолжительность: 02:09:08-Перевод: Профессиональный (многоголосый закадровый) BD Rus
    Перевод 2: Одноголосый закадровый Дмитрий Есарев
    Cубтитры: русские, английские
    Оригинальная аудиодорожка: английский-Режиссер: Том МакКарти / Tom McCarthy
    В ролях: Марк Руффало, Майкл Китон, Рэйчел МакАдамс, Лив Шрайбер, Джон Слэттери, Стэнли Туччи, Брайан Д’Арси Джеймс, Елена Стайтелер, Джин Аморозо, Даг Мюррэй, Шэрон МакФарлэйн, Джейми Шеридан, Нил Хафф, Билли Крадап, Роберт Б. Кеннеди, Дуан Мюррэй, Брайан Чемберлен, Майкл Сирил Крейтон, Пол Гилфойл, Майкл Кантримэн-Описание: Основанная на реальных событиях история журналистского расследования одного из самых громких в истории США секс-скандалов. Корреспонденты бостонской газеты разоблачают случаи педофилии, в которых обвиняются представители Церкви…-Сэмпл-Тип релиза: BDRemux 1080p
    Контейнер: MKV
    Видео: MPEG-4 AVC Video / 31976 kbps / 1080p / 23.976 fps / 16:9 / High Profile 4.1
    Аудио: Russian / DTS-HD Master Audio / 5.1 / 48 kHz / 3572 kbps / 24-bit (DTS Core: 5.1 / 48 kHz / 1509 kbps / 24-bit) | BD MVO
    Аудио 2: Russian / DTS-HD Master Audio / 5.1 / 48 kHz / 3402 kbps / 24-bit (DTS Core: 5.1 / 48 kHz / 1509 kbps / 24-bit) | Дмитрий Есарев
    Аудио 3: English / DTS-HD Master Audio / 5.1 / 48 kHz / 3286 kbps / 24-bit (DTS Core: 5.1 / 48 kHz / 1509 kbps / 24-bit)
    Формат субтитров: softsub (SRT)

    MI

    GeneralUnique ID : 220048310438732901243883463239735681038 (0xA58BC355D741E00F8443F409F99BA00E)Complete name : L:\На хранении\В центре внимания (2015. Spotlight).mkvFormat : MatroskaFormat version : Version 4 / Version 2File size : 37.4 GiBDuration : 2h 9mnOverall bit rate mode : VariableOverall bit rate : 41.5 MbpsMovie name : Release for RuTrackerEncoded date : UTC 2016-04-04 17:22:38Writing application : mkvmerge v9.0.1 ('Obstacles') 64bitWriting library : libebml v1.3.3 + libmatroska v1.4.4Cover : YesAttachments : cover.jpg
    VideoID : 1Format : AVCFormat/Info : Advanced Video CodecFormat profile : High@L4.1Format settings, CABAC : YesFormat settings, ReFrames : 4 framesFormat settings, GOP : M=3, N=12Codec ID : V_MPEG4/ISO/AVCDuration : 2h 9mnBit rate mode : VariableBit rate : 31.2 MbpsMaximum bit rate : 35.0 MbpsWidth : 1 920 pixelsHeight : 1 080 pixelsDisplay aspect ratio : 16:9Frame rate mode : ConstantFrame rate : 23.976 (24000/1001) fpsColor space : YUVChroma subsampling : 4:2:0Bit depth : 8 bitsScan type : ProgressiveBits/(Pixel*Frame) : 0.628Stream size : 28.2 GiB (75%)Title : Spotlight 2015 1080p Blu-ray AVC DTS-HD MA 5.1-BAKEDLanguage : EnglishDefault : YesForced : No
    Audio #1ID : 2Format : DTSFormat/Info : Digital Theater SystemsFormat profile : MA / CoreMode : 16Format settings, Endianness : BigCodec ID : A_DTSDuration : 2h 9mnBit rate mode : Variable / ConstantBit rate : 3 572 Kbps / 1 509 KbpsChannel(s) : 6 channelsChannel positions : Front: L C R, Side: L R, LFESampling rate : 48.0 KHzFrame rate : 93.750 fps (512 spf)Bit depth : 24 bitsCompression mode : Lossless / LossyStream size : 3.22 GiB (9%)Title : MVOLanguage : RussianDefault : YesForced : No
    Audio #2ID : 3Format : DTSFormat/Info : Digital Theater SystemsFormat profile : MA / CoreMode : 16Format settings, Endianness : BigCodec ID : A_DTSDuration : 2h 9mnBit rate mode : Variable / ConstantBit rate : 3 402 Kbps / 1 509 KbpsChannel(s) : 6 channelsChannel positions : Front: L C R, Side: L R, LFESampling rate : 48.0 KHzFrame rate : 93.750 fps (512 spf)Bit depth : 24 bitsCompression mode : Lossless / LossyStream size : 3.07 GiB (8%)Title : Дмитрий ЕсаревLanguage : RussianDefault : NoForced : No
    Audio #3ID : 4Format : DTSFormat/Info : Digital Theater SystemsFormat profile : MA / CoreMode : 16Format settings, Endianness : BigCodec ID : A_DTSDuration : 2h 9mnBit rate mode : Variable / ConstantBit rate : 3 286 Kbps / 1 509 KbpsChannel(s) : 6 channelsChannel positions : Front: L C R, Side: L R, LFESampling rate : 48.0 KHzFrame rate : 93.750 fps (512 spf)Bit depth : 24 bitsCompression mode : Lossless / LossyStream size : 2.96 GiB (8%)Language : EnglishDefault : NoForced : No
    Text #1ID : 5Format : UTF-8Codec ID : S_TEXT/UTF8Codec ID/Info : UTF-8 Plain TextDuration : 1h 59mnBit rate : 157 bpsCount of elements : 2088Stream size : 138 KiB (0%)Title : v1Language : RussianDefault : NoForced : No
    Text #2ID : 6Format : UTF-8Codec ID : S_TEXT/UTF8Codec ID/Info : UTF-8 Plain TextDuration : 1h 59mnBit rate : 153 bpsCount of elements : 2094Stream size : 135 KiB (0%)Title : v2Language : RussianDefault : NoForced : No
    Text #3ID : 7Format : UTF-8Codec ID : S_TEXT/UTF8Codec ID/Info : UTF-8 Plain TextDuration : 1h 59mnBit rate : 90 bpsCount of elements : 2321Stream size : 78.9 KiB (0%)Language : EnglishDefault : NoForced : No
    Text #4ID : 8Format : UTF-8Codec ID : S_TEXT/UTF8Codec ID/Info : UTF-8 Plain TextDuration : 1h 59mnBit rate : 93 bpsCount of elements : 2400Stream size : 81.3 KiB (0%)Title : SDHLanguage : EnglishDefault : NoForced : No
    Text #5ID : 9Format : UTF-8Codec ID : S_TEXT/UTF8Codec ID/Info : UTF-8 Plain TextDuration : 1h 59mnBit rate : 100 bpsCount of elements : 2400Stream size : 87.9 KiB (0%)Title : SDH COLOREDLanguage : EnglishDefault : NoForced : No
    Menu00:00:00.000 : en:Chapter 100:08:20.750 : en:Chapter 200:14:30.536 : en:Chapter 300:21:51.518 : en:Chapter 400:27:38.907 : en:Chapter 500:35:48.771 : en:Chapter 600:45:38.986 : en:Chapter 700:49:12.199 : en:Chapter 800:53:21.156 : en:Chapter 900:59:36.573 : en:Chapter 1001:05:29.216 : en:Chapter 1101:10:47.534 : en:Chapter 1201:17:30.687 : en:Chapter 1301:23:30.046 : en:Chapter 1401:30:03.147 : en:Chapter 1501:34:27.495 : en:Chapter 1601:42:52.541 : en:Chapter 1701:50:57.942 : en:Chapter 1801:55:50.109 : en:Chapter 1902:01:30.574 : en:Chapter 20
    Скриншоты

    Зеркало


    Цитата:
    Цитата:

    • За дубляж спасибо HDClub.
    • перевод Д.Есарева доступен благодаря пользователям: RW, shandorra, mv73, Shrooms, kidman644, guinness, shagrath88, J. Green, RafL, uuppi, ana2363. Работа со звуком Переводман
    • За русские субтитры спасибо Нотабеноид. В раздаче две разные редакции, они немного отличаются как по переводу, так и по таймингам.
    Скачать .torrent

    Скачать торрент-файл бесплатно и на максимальной скорости!

    Как скачивать? · Что такое торрент? · Рейтинг и ограничения

    !ВНИМАНИЕ!
    Сайт не распространяет и не хранит электронные версии произведений, а занимается лишь лишь предоставлением доступа к создаваемому пользователями каталогу ссылок на торрент-файлы, которые содержат только списки хеш-сумм, убедительная просьба с жалобами обращаться напрямую к пользователю. Файлы для обмена на трекере предоставлены пользователями сайта, и администрация не несёт ответственности за их содержание. Просьба не заливать файлы, защищенные авторскими правами, а также файлы нелегального содержания!


    _________________
    [Профиль] [ЛС]
    Показать сообщения:    
    Ответить на тему

    Текущее время: Сегодня, в 16:24

    Часовой пояс: GMT + 2



    Вы не можете начинать темы
    Вы не можете отвечать на сообщения
    Вы не можете редактировать свои сообщения
    Вы не можете удалять свои сообщения
    Вы не можете голосовать в опросах
    Вы не можете прикреплять файлы к сообщениям
    Вы не можете скачивать файлы