BitTorrentTracker PerecTracker.org
BitTorrentTracker PerecTracker.org
    
Регистрация  ·  Вход
 
 · 
Забыли пароль?

  • Авалон / Avalon (Барри Левинсон / Barry Levinson) [1990, США, драма, WEB-DL 720p] MVO (5-й канал) + 2x AVO (Гаврилов, Михалев) + Original Eng + Sub Eng

    Ответить на тему
     
    Автор Сообщение

    Light

    Создавать темы 06-Апр-2016 00:26

           

    [Цитировать]

    Авалон : Avalon«Three generations of family. They shared a dream called America in a place called Avalon»Год выпуска: 1990
    Страна: США
    Жанр: драма
    Продолжительность: 02:07:43
    Перевод:
    Професиональный (Многоголосый закадровый) - 5-й канал
    Авторский (Одноголосый закадровый) - А. Гаврилов
    Авторский (Одноголосый закадровый) - А. Михалев
    Субтитры: английские
    Оригинальная аудиодорожка: английская-Режиссёр: Барри Левинсон : Barry Levinson-В главных ролях: Лео Фукс, Ив Гордон, Лу Джекоби, Армин Мюллер-Шталь, Элизабет Перкинс, Джоан Плаурайт, Кевин Поллак, Эйдан Куинн, Израэль Рубинек, Элайджа Вуд-Описание: Это почти автобиографическая история еврейской семьи, иммигрировавшей в США из Восточной Европы в начале XX века. Их новым местом жительства стал городок Балтимор штата Мериленд. Фильм рассказывает о жизни и становлении этой семьи. На её примере показаны процессы культурной ассимиляции евреев в Америке и влияние модернизации на жизнь американских семей.- -Качество: WEB-DL 720p
    Формат: MKV
    Видео кодек: AVC
    Аудио кодек: AC3, ААС
    Видео: 1280x720 , 23,976 fps, ~4012 kbps avg, 0.185 bit/pixel
    Аудио #1: [RUS] 48 kHz, AC3 Dolby Digital, 2/0 (L,R) ch, ~192 kbps - 5-й канал
    Аудио #2: [RUS] 48 kHz, AC3 Dolby Digital, 2/0 (L,R) ch, ~192 kbps - А. Гаврилов
    Аудио #3: [RUS] 48 kHz, AC3 Dolby Digital, 2/0 (L,R) ch, ~192 kbps - А. Михалев
    Аудио #4: [ENG] 48 kHz, AАС, 2ch, ~160 kbps
    субтитры: английские
    навигация по главам: 28 глав (именные)

    скриншоты

    MediaInfo

    Общее
    Уникальный идентификатор : 209416799395003260176950045996613183088 (0x9D8C355F07154FE8A486F576AEA92670)
    Полное имя : D:\Avalon\Avalon.1990.WEB-DL 720p.mkv
    Формат : Matroska
    Версия формата : Version 4 / Version 2
    Размер файла : 4,44 Гбайт
    Продолжительность : 2 ч. 7 м.
    Общий поток : 4981 Кбит/сек
    Название фильма : Avalon.1990.WEB-DL 720p -Azureus-
    Дата кодирования : UTC 2016-04-04 20:34:07
    Программа кодирования : mkvmerge v7.1.0 ('Good Love') 32bit built on Jul 27 2014 12:59:18
    Библиотека кодирования : libebml v1.3.0 + libmatroska v1.4.1
    DURATION : 02:07:43.008000000
    NUMBER_OF_FRAMES : 239469
    NUMBER_OF_BYTES : 183912192
    _STATISTICS_WRITING_APP : mkvmerge v7.1.0 ('Good Love') 32bit built on Jul 27 2014 12:59:18
    _STATISTICS_WRITING_DATE_UTC : 2016-04-04 20:34:07
    _STATISTICS_TAGS : BPS DURATION NUMBER_OF_FRAMES NUMBER_OF_BYTES
    Видео
    Идентификатор : 1
    Формат : AVC
    Формат/Информация : Advanced Video Codec
    Профиль формата : High@L3.1
    Параметр CABAC формата : Нет
    Параметр ReFrames формата : 2 кадра
    Идентификатор кодека : V_MPEG4/ISO/AVC
    Продолжительность : 2 ч. 7 м.
    Ширина : 1280 пикселей
    Высота : 720 пикселей
    Соотношение сторон : 16:9
    Режим частоты кадров : Постоянный
    Частота кадров : 23,976 кадра/сек
    Цветовое пространство : YUV
    Субдискретизация насыщенности : 4:2:0
    Битовая глубина : 8 бит
    Тип развёртки : Прогрессивная
    Язык : English
    Default : Да
    Forced : Нет
    Цветовой диапазон : Limited
    Основные цвета : BT.709
    Характеристики трансфера : BT.709
    Коэффициенты матрицы : BT.709
    Аудио #1
    Идентификатор : 2
    Формат : AC-3
    Формат/Информация : Audio Coding 3
    Расширение режима : CM (complete main)
    Параметр Endianness формата : Big
    Идентификатор кодека : A_AC3
    Продолжительность : 2 ч. 7 м.
    Вид битрейта : Постоянный
    Битрейт : 192 Кбит/сек
    Каналы : 2 канала
    Расположение каналов : Front: L R
    Частота : 48,0 КГц
    Метод сжатия : С потерями
    Размер потока : 175 Мбайт (4%)
    Заголовок : MVO - 5-й канал
    Язык : Russian
    Default : Да
    Forced : Нет
    Аудио #2
    Идентификатор : 3
    Формат : AC-3
    Формат/Информация : Audio Coding 3
    Расширение режима : CM (complete main)
    Параметр Endianness формата : Big
    Идентификатор кодека : A_AC3
    Продолжительность : 2 ч. 7 м.
    Вид битрейта : Постоянный
    Битрейт : 192 Кбит/сек
    Каналы : 2 канала
    Расположение каналов : Front: L R
    Частота : 48,0 КГц
    Метод сжатия : С потерями
    Размер потока : 175 Мбайт (4%)
    Заголовок : AVO - А. Гаврилов
    Язык : Russian
    Default : Нет
    Forced : Нет
    Аудио #3
    Идентификатор : 4
    Формат : AC-3
    Формат/Информация : Audio Coding 3
    Расширение режима : CM (complete main)
    Параметр Endianness формата : Big
    Идентификатор кодека : A_AC3
    Продолжительность : 2 ч. 7 м.
    Вид битрейта : Постоянный
    Битрейт : 192 Кбит/сек
    Каналы : 2 канала
    Расположение каналов : Front: L R
    Частота : 48,0 КГц
    Метод сжатия : С потерями
    Размер потока : 175 Мбайт (4%)
    Заголовок : AVO - А. Михалев
    Язык : Russian
    Default : Нет
    Forced : Нет
    Аудио #4
    Идентификатор : 5
    Формат : AAC
    Формат/Информация : Advanced Audio Codec
    Профиль формата : LC
    Идентификатор кодека : A_AAC
    Продолжительность : 2 ч. 7 м.
    Каналы : 2 канала
    Расположение каналов : Front: L R
    Частота : 48,0 КГц
    Метод сжатия : С потерями
    Заголовок : ENG
    Язык : English
    Default : Нет
    Forced : Нет
    Текст
    Идентификатор : 6
    Формат : UTF-8
    Идентификатор кодека : S_TEXT/UTF8
    Идентификатор кодека/Информация : UTF-8 Plain Text
    Заголовок : eng sub
    Язык : English
    Default : Нет
    Forced : Нет
    Меню
    00:00:00.000 : en:Start
    00:00:37.000 : en:Sam's Story
    00:08:03.000 : en:Thanksgiving
    00:09:29.000 : en:Father
    00:16:51.000 : en:"Give Me Your Money."
    00:21:35.000 : en:Holiday Get Well Gift
    00:25:31.000 : en:May and Can
    00:29:08.000 : en:KIRK & KAYE'S
    00:31:57.000 : en:Moving to the Suburbs
    00:35:01.000 : en:Dogs and Green Beans
    00:39:10.000 : en:"My Brother's Alive!"
    00:41:25.000 : en:Bees!!!
    00:42:47.000 : en:Family Circle
    00:48:13.000 : en:Sam's Nightclub
    00:53:22.000 : en:A Catchy Slogan
    00:58:01.000 : en:Streetcar Smashup
    01:03:24.000 : en:"I'm Pregnant."
    01:06:36.000 : en:Simka & Family
    01:10:07.000 : en:Cliffhanger
    01:11:46.000 : en:"You Cut the Turkey?"
    01:15:42.000 : en:Discount Warehouse
    01:18:50.000 : en:Broken Circle
    01:33:24.000 : en:Fire Sale
    01:41:56.000 : en:"It's My Fault."
    01:45:27.000 : en:Uninsured
    01:50:44.000 : en:At the Hospital
    01:53:44.000 : en:Eva's Funeral
    01:58:27.000 : en:The Nursing Home
    Скачать .torrent

    Скачать торрент-файл бесплатно и на максимальной скорости!

    Как скачивать? · Что такое торрент? · Рейтинг и ограничения

    !ВНИМАНИЕ!
    Сайт не распространяет и не хранит электронные версии произведений, а занимается лишь лишь предоставлением доступа к создаваемому пользователями каталогу ссылок на торрент-файлы, которые содержат только списки хеш-сумм, убедительная просьба с жалобами обращаться напрямую к пользователю. Файлы для обмена на трекере предоставлены пользователями сайта, и администрация не несёт ответственности за их содержание. Просьба не заливать файлы, защищенные авторскими правами, а также файлы нелегального содержания!


    _________________
    [Профиль] [ЛС]
    Показать сообщения:    
    Ответить на тему

    Текущее время: Сегодня, в 08:10

    Часовой пояс: GMT + 2



    Вы не можете начинать темы
    Вы не можете отвечать на сообщения
    Вы не можете редактировать свои сообщения
    Вы не можете удалять свои сообщения
    Вы не можете голосовать в опросах
    Вы не можете прикреплять файлы к сообщениям
    Вы не можете скачивать файлы