BitTorrentTracker PerecTracker.org
BitTorrentTracker PerecTracker.org
    
Регистрация  ·  Вход
 
 · 
Забыли пароль?

  • Любовь / Love / Сезон: 1 / Серии: 1-10 из 10 (Дин Холланд / Dean Holland) [2016, комедия, WEBRip 400p] DVO (Ozz) + Original + Rus Subs

    Ответить на тему
     
    Автор Сообщение

    rechyn

    Создавать темы 05-Апр-2016 21:31

           

    [Цитировать]

    Любовь - Первый сезонLove - First Season-Год выпуска: 2016
    Страна: США
    Жанр: комедия-Продолжительность: 00:35:00
    Перевод: Профессиональный (двухголосый закадровый) Ozz
    Режиссёр: Дин Холланд / Dean Holland
    В ролях: Гиллиан Джейкобс, Пол Раст, Клодия О’Доерти, Бретт Гельман, Джон Росс Боуи, Дейв Аллен, Стив Беннос, Трейси Томс, Сет Моррис, Крис Витаски, Шанталь Кларет, Брига Хилан, Энди Дик, Дейвид Кинг, Милана Вайнтруб, Айрис Апатоу, Шарлин Йи, Кайл Кинан, Керри Кинни, Джордан Рок и др.-Описание: Гас — тридцатиоднолетний холостяк, который работает приходящим учителем детей-актёров на съёмочной площадке сериала о ведьмах. В принципе, его можно назвать неудачником, но Гас не вешает нос — когда-нибудь он найдёт любовь и станет настоящим сценаристом (он написал эпизод сериала, на котором работает, но никак не решается подсунуть его «нужным людям»). Микки — тридцатидвухлетняя алкоголичка, не брезгующая и лёгкими наркотиками, которая набралась решимости послать-таки своего инфантильного парня, но завязать с другими вредными привычками не может. Однажды два одиночества встретятся в магазине, и их жизни уже никогда не будут прежними.- -Все раздачи сериала | Sample-
    Роли озвучивают: Алексей Серёгин и Ирина Воронова
    Перевод: Trotteville
    Подготовлено: Ozz-Качество: WEBRip
    Формат: AVI
    Видео: XviD, 704x400 (16:9), 23.976 fps, ~2000 kbps
    Аудио #1: Russian 48.0 KHz, AС3 , 6 channels, 384 Kbps |Ozz|
    Аудио #2: English 48.0 KHz, AС3 , 6 channels, 384 Kbps |Original|
    Субтитры: русские (Trotteville)-

    MediaInfo

    General
    Complete name : F:\Love Season 1 Ozz\Love.S01E01.WEBRip.Ozz.avi
    Format : AVI
    Format/Info : Audio Video Interleave
    File size : 799 MiB
    Duration : 40mn 12s
    Overall bit rate : 2 777 Kbps
    Writing application : VirtualDubMod 1.5.10.3 | www.virtualdub-fr.org || (build 2550/release)
    Writing library : VirtualDubMod build 2550/release
    Copyright : Ozz
    Video
    ID : 0
    Format : MPEG-4 Visual
    Format profile : Advanced Simple@L5
    Format settings, BVOP : 1
    Format settings, QPel : No
    Format settings, GMC : No warppoints
    Format settings, Matrix : Default (MPEG)
    Codec ID : XVID
    Codec ID/Hint : XviD
    Duration : 40mn 12s
    Bit rate : 1 995 Kbps
    Width : 704 pixels
    Height : 400 pixels
    Display aspect ratio : 16:9
    Frame rate : 23.976 fps
    Color space : YUV
    Chroma subsampling : 4:2:0
    Bit depth : 8 bits
    Scan type : Progressive
    Compression mode : Lossy
    Bits/(Pixel*Frame) : 0.295
    Stream size : 574 MiB (72%)
    Writing library : XviD 67
    Audio #1
    ID : 1
    Format : AC-3
    Format/Info : Audio Coding 3
    Mode extension : CM (complete main)
    Format settings, Endianness : Big
    Codec ID : 2000
    Duration : 40mn 12s
    Bit rate mode : Constant
    Bit rate : 384 Kbps
    Channel(s) : 6 channels
    Channel positions : Front: L C R, Side: L R, LFE
    Sampling rate : 48.0 KHz
    Bit depth : 16 bits
    Compression mode : Lossy
    Stream size : 110 MiB (14%)
    Alignment : Split accross interleaves
    Interleave, duration : 42 ms (1.00 video frame)
    Interleave, preload duration : 500 ms
    Audio #2
    ID : 2
    Format : AC-3
    Format/Info : Audio Coding 3
    Mode extension : CM (complete main)
    Format settings, Endianness : Big
    Codec ID : 2000
    Duration : 40mn 12s
    Bit rate mode : Constant
    Bit rate : 384 Kbps
    Channel(s) : 6 channels
    Channel positions : Front: L C R, Side: L R, LFE
    Sampling rate : 48.0 KHz
    Bit depth : 16 bits
    Compression mode : Lossy
    Stream size : 110 MiB (14%)
    Alignment : Split accross interleaves
    Interleave, duration : 42 ms (1.00 video frame)
    Interleave, preload duration : 500 ms

    Скриншоты

    -
    Скачать .torrent

    Скачать торрент-файл бесплатно и на максимальной скорости!

    Как скачивать? · Что такое торрент? · Рейтинг и ограничения

    !ВНИМАНИЕ!
    Сайт не распространяет и не хранит электронные версии произведений, а занимается лишь лишь предоставлением доступа к создаваемому пользователями каталогу ссылок на торрент-файлы, которые содержат только списки хеш-сумм, убедительная просьба с жалобами обращаться напрямую к пользователю. Файлы для обмена на трекере предоставлены пользователями сайта, и администрация не несёт ответственности за их содержание. Просьба не заливать файлы, защищенные авторскими правами, а также файлы нелегального содержания!


    _________________
    [Профиль] [ЛС]
    Показать сообщения:    
    Ответить на тему

    Текущее время: Сегодня, в 22:08

    Часовой пояс: GMT + 2



    Вы не можете начинать темы
    Вы не можете отвечать на сообщения
    Вы не можете редактировать свои сообщения
    Вы не можете удалять свои сообщения
    Вы не можете голосовать в опросах
    Вы не можете прикреплять файлы к сообщениям
    Вы не можете скачивать файлы