BitTorrentTracker PerecTracker.org
BitTorrentTracker PerecTracker.org
    
Регистрация  ·  Вход
 
 · 
Забыли пароль?

  • Чужие крылья / Сезон: 1 / Серии: 1-6 из 6 (Алексей Чистиков, Александр Фиронов) [2011, Приключения, военный, DVDRip]

    Ответить на тему
     
    Автор Сообщение

    rechyn

    Создавать темы 05-Апр-2016 21:19

           

    [Цитировать]

    Чужие крыльяГод выпуска: 2011
    Производство: Россия, "Star Media"
    Жанр: Приключения, военный
    Продолжительность: 6 x ~ 00:45:00
    Субтитры: Нет
    Режиссёр: Алексей Чистиков, Александр Фиронов
    В ролях: Денис Рожков, Михаил Трухин, Глафира Тарханова, Елена Полякова, Андрей Егоров (I), Виталий Кищенко, Федя Смирнов, Сергей Сосновский, Константин Тополага, Иван Стебунов, Артём Ткаченко, Павел Степанов
    Описание: Чудом избежавший трибунала летчик-истребитель Рудаков отправляется на опасное задание в тыл врага. Самолет Рудакова сбивают, но ему удается выжить и угнать с аэродрома вражеский Messerschmitt. Под прикрытием «чужих» крыльев Рудаков присоединяется к войне с фашистами в составе партизанского отряда. О том, что на «Мессере» летает советский летчик, становится известно оберштурмбанфюреру SS Катульскому. Однако, охоту на Рудакова начинает не только Катульский — приказ уничтожить его самолет отдает и второй секретарь обкома партии Кежаев, некогда пославший Рудакова под трибунал.

    Сэмпл:
    Качество: DVDRip
    Формат: AVI
    Видео кодек: XviD
    Аудио кодек: MP3
    Видео: XviD build 64, 704x400 (1.76:1), 25 fps, 1577 kbps avg, 0.22 bit/pixel
    Аудио: MPEG Layer 3, 48 kHz, 2 ch, 128.00 kbps avg
    Сторонней рекламы НЕТ !!!
    Все раздачи сериала

    MI

    General
    Complete name : F:\ФИЛЬМЫ РОССИЯ\Chuzhije.Krylja.2011.XviD.DVDRip\Chuzhije.Krylja.2011.XviD.DVDRip.(01.seriya)..avi
    Format : AVI
    Format/Info : Audio Video Interleave
    File size : 552 MiB
    Duration : 44mn 57s
    Overall bit rate : 1 715 Kbps
    Writing application : VirtualDubMod 1.5.10.3 | www.virtualdub-fr.org || (build 2550/release)
    Writing library : VirtualDubMod build 2550/release
    Video
    ID : 0
    Format : MPEG-4 Visual
    Format profile : Advanced Simple@L5
    Format settings, BVOP : 1
    Format settings, QPel : No
    Format settings, GMC : No warppoints
    Format settings, Matrix : Custom
    Codec ID : XVID
    Codec ID/Hint : XviD
    Duration : 44mn 57s
    Bit rate : 1 578 Kbps
    Width : 704 pixels
    Height : 400 pixels
    Display aspect ratio : 16:9
    Frame rate : 25.000 fps
    Color space : YUV
    Chroma subsampling : 4:2:0
    Bit depth : 8 bits
    Scan type : Progressive
    Compression mode : Lossy
    Bits/(Pixel*Frame) : 0.224
    Stream size : 507 MiB (92%)
    Writing library : XviD 64
    Audio
    ID : 1
    Format : MPEG Audio
    Format version : Version 1
    Format profile : Layer 3
    Codec ID : 55
    Codec ID/Hint : MP3
    Duration : 44mn 57s
    Bit rate mode : Constant
    Bit rate : 128 Kbps
    Channel(s) : 2 channels
    Sampling rate : 48.0 KHz
    Compression mode : Lossy
    Stream size : 41.2 MiB (7%)
    Alignment : Aligned on interleaves
    Interleave, duration : 40 ms (1.00 video frame)
    Interleave, preload duratio : 504 ms
    Writing library : LAME3.98r
    Encoding settings : -m s -V 4 -q 2 -lowpass 17 -b 128

    Скриншоты

    Скачать .torrent

    Скачать торрент-файл бесплатно и на максимальной скорости!

    Как скачивать? · Что такое торрент? · Рейтинг и ограничения

    !ВНИМАНИЕ!
    Сайт не распространяет и не хранит электронные версии произведений, а занимается лишь лишь предоставлением доступа к создаваемому пользователями каталогу ссылок на торрент-файлы, которые содержат только списки хеш-сумм, убедительная просьба с жалобами обращаться напрямую к пользователю. Файлы для обмена на трекере предоставлены пользователями сайта, и администрация не несёт ответственности за их содержание. Просьба не заливать файлы, защищенные авторскими правами, а также файлы нелегального содержания!


    _________________
    [Профиль] [ЛС]
    Показать сообщения:    
    Ответить на тему

    Текущее время: Сегодня, в 17:25

    Часовой пояс: GMT + 2



    Вы не можете начинать темы
    Вы не можете отвечать на сообщения
    Вы не можете редактировать свои сообщения
    Вы не можете удалять свои сообщения
    Вы не можете голосовать в опросах
    Вы не можете прикреплять файлы к сообщениям
    Вы не можете скачивать файлы