Register  ·  Log in
Forgot password?

  • Воронины / Сезон 16 / Серии 1-20 из 20 (337-356 из 356) (Aлександр Жигaлкин, Aртём Лoгинов) [2016 г., комедия, семейное кино, IPTVRip]

    Reply to topic
    Author Message


    Post 05-Apr-2016 22:04



    Воронины / Сезон 16 / Серии 1-20 из 20 (337-356 из 356)
    Год выпуска: 2015
    Производство: Россия, СТС
    Жанр: комедия, семейное кино
    Продолжительность: 20 серий по ~ 24 минуты
    Субтитры: нет
    Режиссёры: Александр Жигалкин, Артём Логинов
    В ролях: Георгий (Егор) Дронов, Екатерина Волкова (II), Станислав Дужников, Борис Клюев, Анна Фроловцева
    Описание: В обычном доме в трехкомнатной квартире живет молодая семья: Костя, его жена Вера и их дети – пятилетняя дочка и два маленьких сына-близнеца. Костя – известный спортивный журналист. Жена Вера любит его и ведет все хозяйство, а дети не доставляют много хлопот. Гораздо больше хлопот им приносят родители Кости, которые живут напротив на той же лестничной площадке… Воронины – это история о том, что иногда родственники бывают слишком близкими.
    Релиз: Shel
    Все раздачи сериала
    Качество: IPTVRip
    Формат: AVI
    Видео кодек: XviD
    Аудио кодек: MP3
    Видео: 704x528 (1.33:1), 25 fps, XviD MPEG-4 ~1844 kbps avg, 0.20 bit/pixel
    Аудио: 48 kHz, MPEG Layer 3, 2 ch, ~128.00 kbps avg


    Format : AVI
    Format/Info : Audio Video Interleave
    File size : 339 MiB
    Duration : 23mn 54s
    Overall bit rate : 1 982 Kbps
    Writing library : VirtualDub build 30080/release
    ID : 0
    Format : MPEG-4 Visual
    Format profile : Advanced Simple@L5
    Format settings, BVOP : 2
    Format settings, QPel : No
    Format settings, GMC : No warppoints
    Format settings, Matrix : Default (MPEG)
    Muxing mode : Packed bitstream
    Codec ID : XVID
    Codec ID/Hint : XviD
    Duration : 23mn 54s
    Bit rate : 1 845 Kbps
    Width : 704 pixels
    Height : 528 pixels
    Display aspect ratio : 4:3
    Frame rate : 25.000 fps
    Color space : YUV
    Chroma subsampling : 4:2:0
    Bit depth : 8 bits
    Scan type : Progressive
    Compression mode : Lossy
    Bits/(Pixel*Frame) : 0.199
    Stream size : 316 MiB (93%)
    Writing library : XviD 73
    ID : 1
    Format : MPEG Audio
    Format version : Version 1
    Format profile : Layer 3
    Codec ID : 55
    Codec ID/Hint : MP3
    Duration : 23mn 54s
    Bit rate mode : Constant
    Bit rate : 128 Kbps
    Channel(s) : 2 channels
    Sampling rate : 48.0 KHz
    Compression mode : Lossy
    Stream size : 21.9 MiB (6%)
    Alignment : Split accross interleaves
    Interleave, duration : 40 ms (1.00 video frame)
    Interleave, preload duratio : 500 ms


    Download .torrent

    Download free and at maximum speed!

    How to Download? · What is a torrent? · Ratings and Limitations

    The site does not extend and does not store electronic(digital) versions of products, and only gives access to a reference catalogue created by users on torrent-files which contain only lists of the hash-sums, the earnest entreaty, with complaints(abuse) to access directly to the user. Files for an exchange on tracker are given by users of a site, and the administration does not bear the responsibility for their maintenance. The request to not fill in the files protected by copyrights, and also files of the illegal maintenance!

    [Profile] [PM]
    Display posts from previous:    
    Reply to topic

    The time now is: Today 22:59

    All times are GMT + 3 Hours

    You cannot post new topics in this forum
    You cannot reply to topics in this forum
    You cannot edit your posts in this forum
    You cannot delete your posts in this forum
    You cannot vote in polls in this forum
    You cannot attach files in this forum
    You cannot download files in this forum