BitTorrentTracker PerecTracker.org
BitTorrentTracker PerecTracker.org
    
Регистрация  ·  Вход
 
 · 
Забыли пароль?

  • Физрук / Сезон: 3 / Серии: 1-21 из 21 (Сергей Сенцов) [2016, Комедия, SATRip]

    Ответить на тему
     
    Автор Сообщение

    rechyn

    Создавать темы 05-Апр-2016 20:58

           

    [Цитировать]

    Физрук-Год выпуска: 2016
    Производство: Россия, Good Story Media по заказу ТНТ
    Жанр: Комедия
    Продолжительность: 00:24:00
    Субтитры: нет-Режиссёр: Сергей Сенцов-В ролях: Дмитрий Нагиев, Александр Гордон (II), Полина Гренц, Анастасия Панина, Владимир Сычёв, Даниил Вахрушев, Андрей Крыжний, Артур Сопельник, Оксана Сидоренко, Карина Мишулина-Описание: Во время финального судебного заседания с Олега Евгеньевича Фомина снимают все обвинения. Оказавшись на свободе, он видит, что жизнь его друзей и близких сильно изменилась. У Психа кризис среднего возраста, Таня строит новые отношения, а Саша Мамаева была вынуждена отдать бизнес отца Лене и теперь едва сводит концы с концами. Когда Фома узнает, что в истории с бизнесом Мамая снова замешана Лена, он понимает, что его долг — вернуть все обратно Саше как законной наследнице. Но сделать это будет очень непросто: на стороне Лены деньги, связи и армия головорезов, зато в арсенале Фомы надежная команда и новая невероятная схема, в которой замешаны школа, Татьяна Александровна и даже президент России. Фома собирает вместе всю старую банду, а также призывает на помощь своего нового друга Мишу по кличке Буддист. Он не просто хороший знакомый Фомы, а его наставник и духовник. Продвигаясь к цели, Фома будет отвечать на многочисленные вопросы Буддиста, главные из которых «Кто я?» и «Каково мое место в мире?». Все вместе они отправятся на поиски истины, счастья и справедливости. Вместо трех у них на всех всего одно заветное желание, и компаньоны уверены, что оно обязательно сбудется.--Все раздачи сериала-Качество: SATRip
    Формат: AVI
    Видео кодек: XviD
    Аудио кодек: MP3
    Видео: 720x400 (16:9), 25.000 fps, XviD 67, 1463 Kbps, 0.203 bit/pixel
    Аудио: 48.0 kHz, MP3, 2 ch, 192 Kbps

    MI

    General
    Complete name : Downloads\Физрук. Сезон 3. 2016 SATRip
    Format : AVI
    Format/Info : Audio Video Interleave
    File size : 282 MiB
    Duration : 23mn 42s
    Overall bit rate : 1 665 Kbps
    Writing application : VirtualDubMod 1.5.10.3 (build 2550/release)
    Writing library : VirtualDubMod build 2550/release
    Video #0
    ID : 0
    Format : MPEG-4 Visual
    Format profile : Advanced Simple@L5
    Format settings, BVOP : 1
    Format settings, QPel : No
    Format settings, GMC : No warppoints
    Format settings, Matrix : Default (H.263)
    Codec ID : XVID
    Codec ID/Hint : XviD
    Duration : 23mn 42s
    Bit rate : 1 463 Kbps
    Width : 720 pixels
    Height : 400 pixels
    Display aspect ratio : 16:9
    Frame rate : 25.000 fps
    Color space : YUV
    Chroma subsampling : 4:2:0
    Bit depth : 8 bits
    Scan type : Progressive
    Compression mode : Lossy
    Bits/(Pixel*Frame) : 0.203
    Stream size : 248 MiB (88%)
    Writing library : XviD 67
    Audio #1
    ID : 1
    Format : MPEG Audio
    Format version : Version 1
    Format profile : Layer 3
    Mode : Joint stereo
    Mode extension : MS Stereo
    Codec ID : 55
    Codec ID/Hint : MP3
    Duration : 23mn 42s
    Bit rate mode : Constant
    Bit rate : 192 Kbps
    Channel(s) : 2 channels
    Sampling rate : 48.0 KHz
    Compression mode : Lossy
    Stream size : 32.5 MiB (12%)
    Alignment : Split accross interleaves
    Interleave, duration : 40 ms (1.00 video frame)
    Interleave, preload duration : 500 ms
    Writing library : LAME3.99.5

    Скриншоты

    Скачать .torrent

    Скачать торрент-файл бесплатно и на максимальной скорости!

    Как скачивать? · Что такое торрент? · Рейтинг и ограничения

    !ВНИМАНИЕ!
    Сайт не распространяет и не хранит электронные версии произведений, а занимается лишь лишь предоставлением доступа к создаваемому пользователями каталогу ссылок на торрент-файлы, которые содержат только списки хеш-сумм, убедительная просьба с жалобами обращаться напрямую к пользователю. Файлы для обмена на трекере предоставлены пользователями сайта, и администрация не несёт ответственности за их содержание. Просьба не заливать файлы, защищенные авторскими правами, а также файлы нелегального содержания!


    _________________
    [Профиль] [ЛС]
    Показать сообщения:    
    Ответить на тему

    Текущее время: Сегодня, в 00:14

    Часовой пояс: GMT + 2



    Вы не можете начинать темы
    Вы не можете отвечать на сообщения
    Вы не можете редактировать свои сообщения
    Вы не можете удалять свои сообщения
    Вы не можете голосовать в опросах
    Вы не можете прикреплять файлы к сообщениям
    Вы не можете скачивать файлы