BitTorrentTracker PerecTracker.org
BitTorrentTracker PerecTracker.org
    
Регистрация  ·  Вход
 
 · 
Забыли пароль?

  • 5-я волна / The 5th Wave (Дж. Блэйксон / J. Blakeson ) [2016, США, Фантастика, боевик, триллер, приключения, WEB-DL, HD (720p)] DUB + Original + sub (rus, eng, ukr)

    Ответить на тему
     
    Автор Сообщение

    rechyn

    Создавать темы 05-Апр-2016 20:21

           

    [Цитировать]

    5-я волна / The 5th Wave
    «We Fight Back»
    5.214 / 10 5.30 / 10
    -Год выпуска: 2016
    Страна: США
    Жанр: Фантастика, боевик, триллер, приключения
    Продолжительность: 01:52:22
    Перевод: Дублированный (iTunes)
    Оригинальная аудиодорожка: Есть
    Cубтитры: Русские форсированные, Русские, Английские, Украинские
    Режиссёр: Дж. Блэйксон
    Сценарий: Сюзанна Грант, Акива Голдсман, Джефф Пинкнер
    Продюсер: Тим Хэдингтон, Грэм Кинг, Тоби Магуайр
    Оператор: Энрике Чедьяк
    Композитор: Генри Джекман
    Художник: Джон Билингтон, Джулиан Эшби, Шэрен Дэвис
    Монтаж: Пол Рубелл
    В ролях: Хлоя Грейс Морец, Ник Дж. Робинсон, Рон Ливингстон, Мэгги Сифф, Алекс Роу, Мария Белло, Майка Монро, Лив Шрайбер, Закари Артур, Тони Револори
    Бюджет: $38 000 000
    Сборы в США: $34 294 936
    Сборы в мире: + $72 189 515 = $106 484 451
    Сборы в России: $3 556 174
    Мировая премьера: 14 января 2016
    Премьера (РФ): 21 января 2016, «WDSSPR»
    Описание: Первая волна оставила за собой мглу. От второй успели убежать только самые везучие. Но едва ли можно назвать везучими тех, кто уцелел после третьей. А четвертая волна стерла все человеческие законы, взамен же установила свой, один-единственный: хочешь жить — не верь никому. И вот уже накатывает пятая волна…-Качество исходника: WEB-DL 720p (HDClub)
    Качество: WEB-DL
    Тип: HD (720p)
    Контейнер: M4V
    Видео: H.264, 1280x534, 2.40:1, 4 049 Kbps, 23.976 (23976/1000) fps
    Аудио 1: Русский/Дублированный (iTunes), AAC / 2.0 / 157 Kbps / 48.0 KHz
    Аудио 2: Английский/Оригинальная дорожка , AAC / 2.0 / 155 Kbps / 48.0 KHz
    Аудио 3: Украинский/Дублированный (iTunes), AAC / 2.0 / 156 Kbps / 48.0 KHz
    Аудио 4: Русский/Дублированный (iTunes), AC-3 / 5.1 / 384 Kbps / 48.0 KHz
    Субтитры 1: Русские форсированные
    Субтитры 2: Русские полные
    Субтитры 3: Английские полные
    Субтитры 4: Украинские полные
    -

    iTunes Meta Tags

    Sort Name: 5th Wave
    XID: Apple:vendor_id:2016-673157
    contentID: 1071495771
    Screenwriters: Сюзанна Грант, Акива Голдсман, Джефф Пинкнер
    Producers: Тим Хэдингтон, Грэм Кинг, Тоби Магуайр
    Director: Дж. Блэйксон
    Cast: Хлоя Грейс Морец, Ник Дж. Робинсон, Рон Ливингстон, Мэгги Сифф, Алекс Роу, Мария Белло, Майка Монро, Лив Шрайбер, Закари Артур, Тони Револори, Мария Иващенко, Александр Дасевич, Алексей Мясников, Екатерина Семенова, Александр Дзюба
    Studio: Columbia Pictures
    Rating: 4
    Long Description: Первая волна оставила за собой мглу. От второй успели убежать только самые везучие. Но едва ли можно назвать везучими тех, кто уцелел после третьей. А четвертая волна стерла все человеческие законы, взамен же установила свой, один-единственный: хочешь жить - не верь никому. И вот уже накатывает пятая волна...
    Description: Первая волна оставила за собой мглу. От второй успели убежать только самые везучие. Но едва ли можно назвать везучими тех, кто уцелел после третьей. А четвертая волна стерла все человеческие законы, взамен же установила свой, один-единственный: хочешь жить - не верь никому. И вот уже накатывает пятая волна...
    Release Date: 2016-01-14T08:00:00Z
    Genre: Sci-Fi & Fantasy
    Artist: J Blakeson
    Name: The 5th Wave

    MediaInfo

    General
    Complete name : /Users/imac/HandBrake/The.5th.Wave.720p.WEB-DL.m4v
    Format : MPEG-4
    Codec ID : M4V  (M4V /M4A /mp42/isom)
    File size : 3.86 GiB
    Duration : 1h 52mn
    Overall bit rate mode : Variable
    Overall bit rate : 4 914 Kbps
    Movie name : The 5th Wave
    Performer : J Blakeson
    Director : Дж. Блэйксон
    Actor : Хлоя Грейс Морец / Ник Дж. Робинсон / Рон Ливингстон / Мэгги Сифф / Алекс Роу / Мария Белло / Майка Монро / Лив Шрайбер / Закари Артур / Тони Револори / Мария Иващенко / Александр Дасевич / Алексей Мясников / Екатерина Семенова / Александр Дзюба
    Screenplay by : Сюзанна Грант / Акива Голдсман / Джефф Пинкнер
    Producer : Тим Хэдингтон / Грэм Кинг / Тоби Магуайр
    Production studio : Columbia Pictures
    Genre : Sci-Fi & Fantasy
    ContentType : Short Film
    Description : Первая волна оставила за собой мглу. От второй успели убежать только самые везучие. Но едва ли можно назвать везучими тех, кто уцелел после третьей. А четвертая волна стерла все человеческие законы, взамен же установила свой, один-единственный: хочешь жить - не верь никому. И вот уже накатывает пятая волна...
    Recorded date : UTC 2016-01-14 08:00:00
    Encoded date : UTC 2016-04-05 15:06:23
    Tagged date : UTC 2016-04-05 15:09:00
    Cover : Yes
    Rating : None
    Title/Sort : 5th Wave
    LongDescription : Первая волна оставила за собой мглу. От второй успели убежать только самые везучие. Но едва ли можно назвать везучими тех, кто уцелел после третьей. А четвертая волна стерла все человеческие законы, взамен же установила свой, один-единственный: хочешь жить - не верь никому. И вот уже накатывает пятая волна...
    HDVideo : Yes
    AppleStoreCatalogID : 1071495771
    Vendor : Apple:vendor_id:2016-673157
    ContentRating : mpaa|PG-13|300|
    Video #1
    ID : 1
    Format : AVC
    Format/Info : Advanced Video Codec
    Format profile : Main@L3.1
    Format settings, CABAC : No
    Format settings, ReFrames : 2 frames
    Format settings, GOP : M=2, N=90
    Codec ID : avc1
    Codec ID/Info : Advanced Video Coding
    Duration : 1h 52mn
    Bit rate : 4 049 Kbps
    Width : 1 280 pixels
    Height : 534 pixels
    Display aspect ratio : 2.40:1
    Frame rate mode : Variable
    Frame rate : 23.976 (23976/1000) fps
    Minimum frame rate : 23.810 fps
    Maximum frame rate : 24.390 fps
    Color space : YUV
    Chroma subsampling : 4:2:0
    Bit depth : 8 bits
    Scan type : Progressive
    Bits/(Pixel*Frame) : 0.247
    Stream size : 3.18 GiB (82%)
    Title : Main Program
    Language : English
    Encoded date : UTC 2016-04-05 15:06:23
    Tagged date : UTC 2016-04-05 15:07:50
    Color range : Limited
    Color primaries : BT.709
    Transfer characteristics : BT.709
    Matrix coefficients : BT.709
    Menus : 10,11
    Video #2
    ID : 11
    Format : JPEG
    Codec ID : jpeg
    Duration : 1h 52mn
    Bit rate mode : Variable
    Bit rate : 619 bps
    Width : 640 pixels
    Height : 267 pixels
    Display aspect ratio : 2.40:1
    Frame rate mode : Variable
    Frame rate : 0.002 fps
    Minimum frame rate : 0.002 fps
    Maximum frame rate : 0.004 fps
    Color space : YUV
    Chroma subsampling : 4:2:0
    Bit depth : 8 bits
    Compression mode : Lossy
    Bits/(Pixel*Frame) : 1.811
    Stream size : 604 KiB (0%)
    Title : Chapter Images
    Language : English
    Default : No
    Encoded date : UTC 2016-04-05 15:07:54
    Tagged date : UTC 2016-04-05 15:07:54
    Menu For : 1
    Audio #1
    ID : 2
    Format : AAC
    Format/Info : Advanced Audio Codec
    Format profile : LC
    Codec ID : 40
    Duration : 1h 52mn
    Bit rate mode : Variable
    Bit rate : 157 Kbps
    Maximum bit rate : 252 Kbps
    Channel(s) : 2 channels
    Channel positions : Front: L R
    Sampling rate : 48.0 KHz
    Frame rate : 46.875 fps (1024 spf)
    Compression mode : Lossy
    Stream size : 126 MiB (3%)
    Title : Russian Stereo
    Language : Russian
    Default : Yes
    Alternate group : 1
    Encoded date : UTC 2016-04-05 15:06:23
    Tagged date : UTC 2016-04-05 15:06:55
    Fallback From : 5
    Subtitles : 6,7
    Audio #2
    ID : 3
    Format : AAC
    Format/Info : Advanced Audio Codec
    Format profile : LC
    Codec ID : 40
    Duration : 1h 52mn
    Bit rate mode : Variable
    Bit rate : 155 Kbps
    Maximum bit rate : 264 Kbps
    Channel(s) : 2 channels
    Channel positions : Front: L R
    Sampling rate : 48.0 KHz
    Frame rate : 46.875 fps (1024 spf)
    Compression mode : Lossy
    Stream size : 125 MiB (3%)
    Title : English Stereo
    Language : English
    Default : No
    Alternate group : 1
    Encoded date : UTC 2016-04-05 15:06:23
    Tagged date : UTC 2016-04-05 15:06:55
    Audio #3
    ID : 4
    Format : AAC
    Format/Info : Advanced Audio Codec
    Format profile : LC
    Codec ID : 40
    Duration : 1h 52mn
    Bit rate mode : Variable
    Bit rate : 156 Kbps
    Maximum bit rate : 253 Kbps
    Channel(s) : 2 channels
    Channel positions : Front: L R
    Sampling rate : 48.0 KHz
    Frame rate : 46.875 fps (1024 spf)
    Compression mode : Lossy
    Stream size : 126 MiB (3%)
    Title : Ukrainian Stereo
    Language : Ukrainian
    Default : No
    Alternate group : 1
    Encoded date : UTC 2016-04-05 15:06:23
    Tagged date : UTC 2016-04-05 15:06:55
    Audio #4
    ID : 5
    Format : AC-3
    Format/Info : Audio Coding 3
    Mode extension : CM (complete main)
    Format settings, Endianness : Big
    Codec ID : ac-3
    Duration : 1h 52mn
    Bit rate mode : Constant
    Bit rate : 384 Kbps
    Channel(s) : 6 channels
    Channel positions : Front: L C R, Side: L R, LFE
    Sampling rate : 48.0 KHz
    Frame rate : 31.250 fps (1536 spf)
    Bit depth : 16 bits
    Compression mode : Lossy
    Stream size : 309 MiB (8%)
    Title : Russian DD 5.1
    Language : Russian
    Default : Inherited From: 2
    Alternate group : 1
    Encoded date : UTC 2016-04-05 15:06:23
    Tagged date : UTC 2016-04-05 15:06:55
    Fallback To : 2
    Subtitles : 6,7
    Text #1
    ID : 6
    Format : Timed Text
    Muxing mode : sbtl
    Codec ID : tx3g
    Duration : 9mn 19s
    Bit rate mode : Variable
    Bit rate : 1 bps
    Stream size : 88.0 Bytes (0%)
    Title : Russian Forced
    Language : Russian
    Default : Yes
    Forced : Yes
    Alternate group : 2
    Encoded date : UTC 2016-04-05 15:06:23
    Tagged date : UTC 2016-04-05 15:06:26
    Subtitles For : 2,5
    Full Alternative : 7
    Text #2
    ID : 7
    Format : Timed Text
    Muxing mode : sbtl
    Codec ID : tx3g
    Duration : 1h 45mn
    Bit rate mode : Variable
    Bit rate : 75 bps
    Stream size : 58.3 KiB (0%)
    Title : RussianFull
    Language : Russian
    Default : No
    Forced : No
    Alternate group : 2
    Encoded date : UTC 2016-04-05 15:06:23
    Tagged date : UTC 2016-04-05 15:06:53
    Subtitles For : 2,5
    Forced Alternative : 6
    Text #3
    ID : 8
    Format : Timed Text
    Muxing mode : sbtl
    Codec ID : tx3g
    Duration : 1h 45mn
    Bit rate mode : Variable
    Bit rate : 49 bps
    Stream size : 37.8 KiB (0%)
    Title : English Full
    Language : English
    Default : No
    Forced : No
    Alternate group : 2
    Encoded date : UTC 2016-04-05 15:06:23
    Tagged date : UTC 2016-04-05 15:06:53
    Text #4
    ID : 9
    Format : Timed Text
    Muxing mode : sbtl
    Codec ID : tx3g
    Duration : 1h 45mn
    Bit rate mode : Variable
    Bit rate : 75 bps
    Stream size : 58.6 KiB (0%)
    Title : Ukrainian Full
    Language : Ukrainian
    Default : No
    Forced : No
    Alternate group : 2
    Encoded date : UTC 2016-04-05 15:06:23
    Tagged date : UTC 2016-04-05 15:06:53
    Menu #1
    00:00:00.000 : 1
    00:03:47.142 : 2
    00:09:05.461 : 3
    00:16:02.002 : 4
    00:20:45.660 : 5
    00:28:43.262 : 6
    00:37:41.425 : 7
    00:45:49.913 : 8
    00:54:19.005 : 9
    00:59:46.791 : 10
    01:06:01.290 : 11
    01:13:05.589 : 12
    01:18:12.437 : 13
    01:25:01.304 : 14
    01:32:20.242 : 15
    01:43:05.094 : 16
    Menu #2
    ID : 10
    Codec ID : text
    Duration : 1h 52mn
    Language : English
    Encoded date : UTC 2016-04-05 15:07:50
    Tagged date : UTC 2016-04-05 15:07:50
    Menu For : 1
    00:00:00.000 : 1
    00:03:47.142 : 2
    00:09:05.461 : 3
    00:16:02.002 : 4
    00:20:45.660 : 5
    00:28:43.262 : 6
    00:37:41.425 : 7
    00:45:49.913 : 8
    00:54:19.005 : 9
    00:59:46.791 : 10
    01:06:01.290 : 11
    01:13:05.589 : 12
    01:18:12.437 : 13
    01:25:01.304 : 14
    01:32:20.242 : 15
    01:43:05.094 : 16
    Bit rate mode : VBR

    Скриншоты

    -

    Релиз подготовлен для просмотра на Apple TV, iPad, iPhone, iPod Touch.
    Для просмотра данного релиза на компьютере с ОС Windows рекомендуется использовать VLC media player
    Скачать .torrent

    Скачать торрент-файл бесплатно и на максимальной скорости!

    Как скачивать? · Что такое торрент? · Рейтинг и ограничения

    !ВНИМАНИЕ!
    Сайт не распространяет и не хранит электронные версии произведений, а занимается лишь лишь предоставлением доступа к создаваемому пользователями каталогу ссылок на торрент-файлы, которые содержат только списки хеш-сумм, убедительная просьба с жалобами обращаться напрямую к пользователю. Файлы для обмена на трекере предоставлены пользователями сайта, и администрация не несёт ответственности за их содержание. Просьба не заливать файлы, защищенные авторскими правами, а также файлы нелегального содержания!


    _________________
    [Профиль] [ЛС]
    Показать сообщения:    
    Ответить на тему

    Текущее время: Сегодня, в 21:17

    Часовой пояс: GMT + 2



    Вы не можете начинать темы
    Вы не можете отвечать на сообщения
    Вы не можете редактировать свои сообщения
    Вы не можете удалять свои сообщения
    Вы не можете голосовать в опросах
    Вы не можете прикреплять файлы к сообщениям
    Вы не можете скачивать файлы